Попались все (Вячеслав Котёночкин) [1998, Россия, Рисованный мультфильм, WEBRip]

Ответить на тему
Статистика раздачи [Обновить пиров]
Размер:  104 MB   |    Зарегистрирован:  1 год 11 месяцев   |    Скачан:  0 раз

Полного источника не было: Никогда

 
   
 
 
 
Автор Сообщение

torrentc.info

Создавать темы 12-Мар-2017 09:54

[Цитировать]

Попались все
Страна: Россия
Жанр: Рисованный мультфильм
Продолжительность: 00:08:52
Год выхода: 1998
Русские субтитры: нет
Режиссёр: Вячеслав Котёночкин
Роли озвучивали: К.Румянова,Л.Гнилова,В.Богачев,Р.Суховерко
Описание: Необычная история, написанная Григорием Остером, легла в основу этого мультфильма. Бобер, Барсук и Мышонок отправились в лес по грибы….
Продолжение серий мультфильмов («он попался» и «попался который кусался») о лесных друзьях, к сожалению, последняя работа Вячеслава Котеночкина («Ну погоди» и д.р.), снятая самим автором.
Доп. информация:
Редактор: Н.Абрамова
Директор: Н.Соколова
Графика: Студия «Дубль В»
Художники: Г.Аркадьев,З.Монетова,О.Шмырина и д.р.
Композитор: Ю.Моргачёв
:

1 серия: Он попался (1981)- [url=viewtopic.php?t=4018968]http://torrentc/forum/viewtopic.php?t=4018968[/url]
2 серия: Попался который кусался (1983) - [url=viewtopic.php?t=4017786]http://torrentc/forum/viewtopic.php?t=4017786[/url]
Качество: WEBRip
Формат файла: AVI
Видео: 704x400 (1.76:1), 24 fps, XviD build 67 ~1431 kbps avg, 0.21 bit/pixel
Аудио: 48 kHz, AC3 Dolby Digital, 2/0 (L,R) ch, ~192.00 kbps avg
Субтитры: нет

Подробные технические данные

Format : AVIFormat/Info : Audio Video InterleaveFile size : 104 MiBDuration : 8mn 52sOverall bit rate : 1 634 KbpsWriting application : VirtualDubMod 1.5.10.2 (build 2542/release)Writing library : VirtualDubMod build 2542/release
VideoID : 0Format : MPEG-4 VisualFormat profile : Advanced Simple@L5Format settings, BVOP : 2Format settings, QPel : NoFormat settings, GMC : No warppointsFormat settings, Matrix : CustomCodec ID : XVIDCodec ID/Hint : XviDDuration : 8mn 52sBit rate : 1 432 KbpsWidth : 704 pixelsHeight : 400 pixelsDisplay aspect ratio : 16:9Frame rate : 24.000 fpsColor space : YUVChroma subsampling : 4:2:0Bit depth : 8 bitsScan type : ProgressiveCompression mode : LossyBits/(Pixel*Frame) : 0.212Stream size : 90.9 MiB (88%)Writing library : XviD 67
AudioID : 1Format : AC-3Format/Info : Audio Coding 3Mode extension : CM (complete main)Format settings, Endianness : BigCodec ID : 2000Duration : 8mn 52sBit rate mode : ConstantBit rate : 192 KbpsChannel(s) : 2 channelsChannel positions : Front: L RSampling rate : 48.0 KHzBit depth : 16 bitsCompression mode : LossyStream size : 12.2 MiB (12%)Alignment : Split accross interleavesInterleave, duration : 42 ms (1.00 video frame)Interleave, preload duration : 500 ms

Скриншоты



[torrentc.info]_t_5297115.torrent
Торрент: Зарегистрирован ·  [ 2017-03-12 09:54 ] ·  fad1f5c799847779b522e5438ce8f69fb3d536d5

9 KB

Статус: проверено
Скачан: 0 раз
Размер: 104 MB
Оценка: 
(Голосов: 0)
Сказали спасибо: 0  Спасибо
Похожие темы
[Профиль]    [ЛС]
Показать сообщения:    
Ответить на тему

Текущее время: Сегодня 14:01

Часовой пояс: GMT + 7



Вы не можете начинать темы
Вы не можете отвечать на сообщения
Вы не можете редактировать свои сообщения
Вы не можете удалять свои сообщения
Вы не можете голосовать в опросах
Вы не можете прикреплять файлы к сообщениям
Вы можете скачивать файлы