Сефардская колыбельная (Елизавета Скворцова) [2009, Россия, музыкальный мультфильм, WEBRip] из цикла "Колыбельные Мира"

Ответить на тему
Статистика раздачи [Обновить пиров]
Размер:  51 MB   |    Зарегистрирован:  1 год 11 месяцев   |    Скачан:  0 раз

Полного источника не было: Никогда

 
   
 
 
 
Автор Сообщение

torrentc.info

Создавать темы 12-Мар-2017 09:54

[Цитировать]

Сефардская колыбельная
Страна: Россия
Жанр: музыкальный мультфильм
Продолжительность: 00:04:22
Год выхода: 2009
Режиссёр: Елизавета Скворцова
Описание: Сефарды - это испанские евреи, говорящие на языке ладино. Мультфильм - экранизация народной колыбельной песни.
Доп. информация: Мультфильм из цикла "Колыбельные Мира".
Предыдущие серии здесь - [url=viewtopic.php?t=2458663]http://torrentc/forum/viewtopic.php?t=2458663[/url]
Качество: WEBRip
Формат файла: AVI
Видео: 1486 kbps, 592х480 (5:4), 25.000 fps, MPEG-4 Visual (XviD)
Аудио: 128 kbps, 44.1 kHz, 2 channels, MPEG Audio (MP3)
Субтитры: отсутствуют

Подробные технические данные

GeneralComplete name : Сефардская колыбельная.aviFormat : AVIFormat/Info : Audio Video InterleaveFile size : 50.7 MiBDuration : 4mn 22sOverall bit rate : 1 623 KbpsWriting library : VirtualDub build 35491/release
VideoID : 0Format : MPEG-4 VisualFormat profile : Advanced Simple@L4Format settings, BVOP : 2Format settings, QPel : NoFormat settings, GMC : No warppointsFormat settings, Matrix : Default (H.263)Codec ID : XVIDCodec ID/Hint : XviDDuration : 4mn 22sBit rate : 1 486 KbpsWidth : 592 pixelsHeight : 480 pixelsDisplay aspect ratio : 5:4Frame rate : 25.000 fpsColor space : YUVChroma subsampling : 4:2:0Bit depth : 8 bitsScan type : ProgressiveCompression mode : LossyBits/(Pixel*Frame) : 0.209Stream size : 46.4 MiB (92%)Writing library : XviD 64
AudioID : 1Format : MPEG AudioFormat version : Version 1Format profile : Layer 3Mode : Joint stereoMode extension : MS StereoCodec ID : 55Codec ID/Hint : MP3Duration : 4mn 22sBit rate mode : ConstantBit rate : 128 KbpsChannel(s) : 2 channelsSampling rate : 44.1 KHzCompression mode : LossyStream size : 3.99 MiB (8%)Alignment : Split accross interleavesInterleave, duration : 40 ms (1.00 video frame)Interleave, preload duration : 501 ms

Скриншоты

Текст и перевод колыбельной

Nani Nani Nani,
Nani que era el hijo.
El hijo de la madre,
De chico se haga grande.
Ay, durmite mi alma,
Que tu padre viene
Con mucha alegría.
Nani Nani Nani,
Nani que era el hijo.
El hijo de la madre,
De chico se haga grande.
_____________________
Нани-нани-нани
Нани, спи сынок.
Мамин сынок,
Вырастай большим.
Ай, спи, душа моя,
Твой отец придёт
Полон радости.
Нани-нани-нани
Нани, спи сынок,
Мамин сынок,
Вырастай большим.


[torrentc.info]_t_5297402.torrent
Торрент: Зарегистрирован ·  [ 2017-03-12 09:54 ] ·  7a8ad603af48f1d7050cc2681fbf0d98adffd4d7

16 KB

Статус: проверено
Скачан: 0 раз
Размер: 51 MB
Оценка: 
(Голосов: 0)
Сказали спасибо: 0  Спасибо
Похожие темы
[Профиль]    [ЛС]
Показать сообщения:    
Ответить на тему

Текущее время: Сегодня 09:52

Часовой пояс: GMT + 7



Вы не можете начинать темы
Вы не можете отвечать на сообщения
Вы не можете редактировать свои сообщения
Вы не можете удалять свои сообщения
Вы не можете голосовать в опросах
Вы не можете прикреплять файлы к сообщениям
Вы можете скачивать файлы