Птицелов (Елена Пророкова) [1984, СССР, мультфильм для взрослых, притча, TVRip]

Ответить на тему
Статистика раздачи [Обновить пиров]
Размер:  170 MB   |    Зарегистрирован:  1 год 11 месяцев   |    Скачан:  0 раз

Полного источника не было: Никогда

 
   
 
 
 
Автор Сообщение

torrentc.info

Создавать темы 12-Мар-2017 09:54

[Цитировать]

Птицелов
Страна: СССР
Жанр: мультфильм для взрослых, притча
Продолжительность: 00:09:48
Год выхода: 1984
Режиссёр: Елена Пророкова
Описание: Щеголеватый, тщеславный птицелов встречает в лесу крылатую девушку, излучающую волшебное сияние. Он гордо возвращается домой с этой "добычей", но в итоге не может смириться с тем, что отныне восхищение сограждан адресуется не ему, а ей.
Качество: TVRip
Формат файла: AVI
Видео: 2222 kbps, 640х496 (1.290), 25.000 fps, MPEG-4 Visual (XviD)
Аудио: 192 kbps, 48.0 kHz, 2 channels, MPEG Audio (MP3)
Субтитры: отсутствуют

Подробные технические данные

GeneralComplete name : Птицелов (1984).aviFormat : AVIFormat/Info : Audio Video InterleaveFile size : 170 MiBDuration : 9mn 48sOverall bit rate : 2 424 KbpsWriting application : VirtualDubMod 1.5.10.2 (build 2540/release)Writing library : VirtualDubMod build 2540/release
VideoID : 0Format : MPEG-4 VisualFormat profile : Advanced Simple@L5Format settings, BVOP : 1Format settings, QPel : NoFormat settings, GMC : No warppointsFormat settings, Matrix : Default (H.263)Codec ID : XVIDCodec ID/Hint : XviDDuration : 9mn 48sBit rate : 2 222 KbpsWidth : 640 pixelsHeight : 496 pixelsDisplay aspect ratio : 1.290Frame rate : 25.000 fpsColor space : YUVChroma subsampling : 4:2:0Bit depth : 8 bitsScan type : ProgressiveCompression mode : LossyBits/(Pixel*Frame) : 0.280Stream size : 156 MiB (92%)Writing library : XviD 1.2.1 (UTC 2008-12-04)
AudioID : 1Format : MPEG AudioFormat version : Version 1Format profile : Layer 3Codec ID : 55Codec ID/Hint : MP3Duration : 9mn 47sBit rate mode : ConstantBit rate : 192 KbpsChannel(s) : 2 channelsSampling rate : 48.0 KHzCompression mode : LossyStream size : 13.5 MiB (8%)Alignment : Aligned on interleavesInterleave, duration : 40 ms (1.00 video frame)Interleave, preload duration : 504 msWriting library : LAME3.98rEncoding settings : -m s -V 4 -q 0 -lowpass 18.6 -b 192

Скриншоты



[torrentc.info]_t_5299999.torrent
Торрент: Зарегистрирован ·  [ 2017-03-12 09:54 ] ·  795fe4980a6929ba1e6a6bda7b9d687a67576696

14 KB

Статус: проверено
Скачан: 0 раз
Размер: 170 MB
Оценка: 
(Голосов: 0)
Сказали спасибо: 0  Спасибо
Похожие темы
[Профиль]    [ЛС]
Показать сообщения:    
Ответить на тему

Текущее время: Сегодня 09:52

Часовой пояс: GMT + 7



Вы не можете начинать темы
Вы не можете отвечать на сообщения
Вы не можете редактировать свои сообщения
Вы не можете удалять свои сообщения
Вы не можете голосовать в опросах
Вы не можете прикреплять файлы к сообщениям
Вы можете скачивать файлы