Каприччио (Игорь Волчек) [1986, СССР, мультфильм для взрослых, WEBRip]

Ответить на тему
Статистика раздачи [Обновить пиров]
Размер:  75 MB   |    Зарегистрирован:  1 год 11 месяцев   |    Скачан:  0 раз

Полного источника не было: Никогда

 
   
 
 
 
Автор Сообщение

torrentc.info

Создавать темы 12-Мар-2017 09:54

[Цитировать]

Каприччио
Страна: СССР
Жанр: мультфильм для взрослых
Продолжительность: 00:09:40
Год выхода: 1986
Режиссёр: Игорь Волчек
Описание: Стоя вечером у окна, человек задумывается о своей жизни. Воображаемый поезд увозит его в ночь, а за окнами мелькают воспоминания о прошлом.
Доп. информация:
Первая премия по разделу мультфильмов на ХХ ВКФ в Тбилиси (1986)
Главный приз по разделу мультфильмов на фестивале в Варне (1986)
Качество: WEBRip
Формат файла: AVI
Видео: 886 kbps, 704х528 (4:3), 25.000 fps, MPEG-4 Visual (XviD)
Аудио: 192 kbps, 44.1 kHz, 2 channels, MPEG Audio (MP3)
Субтитры: отсутствуют

Подробные технические данные

GeneralComplete name : Каприччио (1986).aviFormat : AVIFormat/Info : Audio Video InterleaveFile size : 75.5 MiBDuration : 9mn 40sOverall bit rate : 1 090 KbpsWriting application : MEncoder SVN-r30881(20100311-gcc4.3.3)Writing library : MPlayer
VideoID : 0Format : MPEG-4 VisualFormat profile : Advanced Simple@L5Format settings, BVOP : 2Format settings, QPel : NoFormat settings, GMC : No warppointsFormat settings, Matrix : Default (H.263)Codec ID : XVIDCodec ID/Hint : XviDDuration : 9mn 40sBit rate : 886 KbpsWidth : 704 pixelsHeight : 528 pixelsDisplay aspect ratio : 4:3Original display aspect ratio : 4:3Frame rate : 25.000 fpsColor space : YUVChroma subsampling : 4:2:0Bit depth : 8 bitsScan type : ProgressiveCompression mode : LossyBits/(Pixel*Frame) : 0.095Stream size : 61.3 MiB (81%)Writing library : XviD 1.2.1 (UTC 2008-12-04)
AudioID : 1Format : MPEG AudioFormat version : Version 1Format profile : Layer 3Mode : Joint stereoMode extension : MS StereoCodec ID : 55Codec ID/Hint : MP3Duration : 9mn 40sBit rate mode : ConstantBit rate : 192 KbpsChannel(s) : 2 channelsSampling rate : 44.1 KHzCompression mode : LossyDelay relative to video : 120msStream size : 13.3 MiB (18%)Alignment : Aligned on interleavesInterleave, duration : 26 ms (0.65 video frame)Interleave, preload duration : 522 msWriting library : LAME3.98

Скриншоты



[torrentc.info]_t_5300426.torrent
Торрент: Зарегистрирован ·  [ 2017-03-12 09:54 ] ·  1252185f2ae2f4c3f48f67b6fe8e458f19f3b4f8

12 KB

Статус: проверено
Скачан: 0 раз
Размер: 75 MB
Оценка: 
(Голосов: 0)
Сказали спасибо: 0  Спасибо
Похожие темы
[Профиль]    [ЛС]
Показать сообщения:    
Ответить на тему

Текущее время: Сегодня 16:03

Часовой пояс: GMT + 7



Вы не можете начинать темы
Вы не можете отвечать на сообщения
Вы не можете редактировать свои сообщения
Вы не можете удалять свои сообщения
Вы не можете голосовать в опросах
Вы не можете прикреплять файлы к сообщениям
Вы можете скачивать файлы