Хорватская колыбельная (Елизавета Скворцова) [2007, Россия, музыкальный мультфильм, WEBRip] из цикла "Колыбельные Мира"

Ответить на тему
Статистика раздачи [Обновить пиров]
Размер:  55 MB   |    Зарегистрирован:  1 год 11 месяцев   |    Скачан:  0 раз

Полного источника не было: Никогда

 
   
 
 
 
Автор Сообщение

torrentc.info

Создавать темы 12-Мар-2017 09:54

[Цитировать]

Хорватская колыбельная
Страна: Россия
Жанр: музыкальный мультфильм
Продолжительность: 00:04:02
Год выхода: 2007
Режиссёр: Елизавета Скворцова
Поёт: группа "Putokazi"
Описание: Экранизация хорватской колыбельной песни. Перед началом дети рассказывают про Хорватию.
Доп. информация: Мультфильм из цикла "Колыбельные Мира".
Предыдущие серии здесь - [url=viewtopic.php?t=2458663]http://torrentc/forum/viewtopic.php?t=2458663[/url]
Качество: WEBRip
Формат файла: AVI
Видео: 1781 kbps, 640х480 (4:3), 25.000 fps, MPEG-4 Visual (XviD)
Аудио: 128 kbps, 44.1 kHz, 2 channels, MPEG Audio (MP3)
Субтитры: отсутствуют

Подробные технические данные

GeneralComplete name : Хорватская колыбельная.aviFormat : AVIFormat/Info : Audio Video InterleaveFile size : 55.5 MiBDuration : 4mn 2sOverall bit rate : 1 918 KbpsWriting library : VirtualDub build 35491/release
VideoID : 0Format : MPEG-4 VisualFormat profile : Advanced Simple@L4Format settings, BVOP : 2Format settings, QPel : NoFormat settings, GMC : No warppointsFormat settings, Matrix : Default (H.263)Codec ID : XVIDCodec ID/Hint : XviDDuration : 4mn 2sBit rate : 1 781 KbpsWidth : 640 pixelsHeight : 480 pixelsDisplay aspect ratio : 4:3Frame rate : 25.000 fpsColor space : YUVChroma subsampling : 4:2:0Bit depth : 8 bitsScan type : ProgressiveCompression mode : LossyBits/(Pixel*Frame) : 0.232Stream size : 51.5 MiB (93%)Writing library : XviD 64
AudioID : 1Format : MPEG AudioFormat version : Version 1Format profile : Layer 3Mode : Joint stereoMode extension : MS StereoCodec ID : 55Codec ID/Hint : MP3Duration : 4mn 2sBit rate mode : ConstantBit rate : 128 KbpsChannel(s) : 2 channelsSampling rate : 44.1 KHzCompression mode : LossyStream size : 3.69 MiB (7%)Alignment : Split accross interleavesInterleave, duration : 40 ms (1.00 video frame)Interleave, preload duration : 500 ms

Скриншоты

Текст и перевод колыбельной

Ljuljaj mi sine,
Ljuljaj mi nado moja,
Ljuljaj mi unučiću moj.
I tvoja će baka spati
I na krilo tebe zvati,
Nunaj mi golube moj…
_______________________
Засыпай, мой сынок,
Засыпай, надежда моя,
Засыпай, внучек мой.
И твоя бабушка спит
И на крыло тебя зовёт,
Улетай, голубь мой...


[torrentc.info]_t_5300833.torrent
Торрент: Зарегистрирован ·  [ 2017-03-12 09:54 ] ·  c8985ed39b1c9aed03379d249d096be644bb7b36

18 KB

Статус: проверено
Скачан: 0 раз
Размер: 55 MB
Оценка: 
(Голосов: 0)
Сказали спасибо: 0  Спасибо
Похожие темы
[Профиль]    [ЛС]
Показать сообщения:    
Ответить на тему

Текущее время: Сегодня 16:03

Часовой пояс: GMT + 7



Вы не можете начинать темы
Вы не можете отвечать на сообщения
Вы не можете редактировать свои сообщения
Вы не можете удалять свои сообщения
Вы не можете голосовать в опросах
Вы не можете прикреплять файлы к сообщениям
Вы можете скачивать файлы