Самоотверженный заяц (Алексей Соловьёв) [1992, Россия, мультфильм для взрослых, TVRip]

Ответить на тему
Статистика раздачи [Обновить пиров]
Размер:  163 MB   |    Зарегистрирован:  1 год 11 месяцев   |    Скачан:  0 раз

Полного источника не было: Никогда

 
   
 
 
 
Автор Сообщение

torrentc.info

Создавать темы 12-Мар-2017 09:54

[Цитировать]

Самоотверженный заяц
Страна: Россия
Жанр: мультфильм для взрослых
Продолжительность: 00:09:24
Год выхода: 1992
Режиссёр: Алексей Соловьёв
Композитор: Игорь Ефремов
Роли озвучивали: Рогволд Суховерко, Валентина Игнатьева, Владимир Вихров
Описание: Сатирический мюзикл по мотивам одноименной сказки М.Е. Салтыкова-Щедрина, высмеивающей волчьи повадки тиранов и рабскую психологию народа, надеющегося на доброту хищников.
Качество: TVRip
Формат файла: AVI
Видео: 2222 kbps, 704х528 (4:3), 25.000 fps, MPEG-4 Visual (XviD)
Аудио: 192 kbps, 48.0 kHz, 2 channels, MPEG Audio (MP3)
Субтитры: отсутствуют

Подробные технические данные

GeneralComplete name : Самоотверженный заяц. 1992.aviFormat : AVIFormat/Info : Audio Video InterleaveFile size : 163 MiBDuration : 9mn 24sOverall bit rate : 2 424 KbpsWriting application : VirtualDubMod 1.5.10.2 (build 2540/release)Writing library : VirtualDubMod build 2540/release
VideoID : 0Format : MPEG-4 VisualFormat profile : Advanced Simple@L5Format settings, BVOP : 1Format settings, QPel : NoFormat settings, GMC : No warppointsFormat settings, Matrix : Default (MPEG)Codec ID : XVIDCodec ID/Hint : XviDDuration : 9mn 24sBit rate : 2 222 KbpsWidth : 704 pixelsHeight : 528 pixelsDisplay aspect ratio : 4:3Frame rate : 25.000 fpsColor space : YUVChroma subsampling : 4:2:0Bit depth : 8 bitsScan type : ProgressiveCompression mode : LossyBits/(Pixel*Frame) : 0.239Stream size : 149 MiB (92%)Writing library : XviD 1.2.1 (UTC 2008-12-04)
AudioID : 1Format : MPEG AudioFormat version : Version 1Format profile : Layer 3Codec ID : 55Codec ID/Hint : MP3Duration : 9mn 24sBit rate mode : ConstantBit rate : 192 KbpsChannel(s) : 2 channelsSampling rate : 48.0 KHzCompression mode : LossyStream size : 12.9 MiB (8%)Alignment : Aligned on interleavesInterleave, duration : 40 ms (1.00 video frame)Interleave, preload duration : 504 msWriting library : LAME3.98rEncoding settings : -m s -V 4 -q 0 -lowpass 18.6 -b 192

Скриншоты



[torrentc.info]_t_5306361.torrent
Торрент: Зарегистрирован ·  [ 2017-03-12 09:54 ] ·  94f1e839a47f3804b82d49a05151a0d67f488d9e

13 KB

Статус: проверено
Скачан: 0 раз
Размер: 163 MB
Оценка: 
(Голосов: 0)
Сказали спасибо: 0  Спасибо
Похожие темы
[Профиль]    [ЛС]
Показать сообщения:    
Ответить на тему

Текущее время: Сегодня 09:48

Часовой пояс: GMT + 7



Вы не можете начинать темы
Вы не можете отвечать на сообщения
Вы не можете редактировать свои сообщения
Вы не можете удалять свои сообщения
Вы не можете голосовать в опросах
Вы не можете прикреплять файлы к сообщениям
Вы можете скачивать файлы