Сорок небылиц (Амен Хайдаров) [1978, СССР, мультфильм, WEBRip]

Ответить на тему
Статистика раздачи [Обновить пиров]
Размер:  183 MB   |    Зарегистрирован:  1 год 11 месяцев   |    Скачан:  0 раз

Полного источника не было: Никогда

 
   
 
 
 
Автор Сообщение

torrentc.info

Создавать темы 12-Мар-2017 09:54

[Цитировать]

Сорок небылиц
Страна: СССР (Казахская республика)
Жанр: мультфильм
Продолжительность: 00:19:11
Год выхода: 1978
Перевод: не требуется
Режиссёр: Амен Хайдаров
Описание: По мотивам казахской народной сказки.
Жестокий хан издал указ о том, что рассказавший 40 небылиц сможет жениться на ханской дочери, а сказавший при этом хоть слово правды - останется без головы. Молодой пастушок Ташша всегда говорил правду, но решил принять вызов хана...
Качество: WEBRip
Формат файла: AVI
Видео: 1198 kbps, 640х480 (4:3), 25.000 fps, MPEG-4 Visual (XviD)
Аудио: 128 kbps, 44.1 kHz, 2 channels, MPEG Audio (MP3)
Субтитры: отсутствуют

Подробные технические данные

GeneralComplete name : Сорок небылиц. 1978.aviFormat : AVIFormat/Info : Audio Video InterleaveFile size : 183 MiBDuration : 19mn 11sOverall bit rate : 1 335 KbpsWriting library : VirtualDub build 35491/release
VideoID : 0Format : MPEG-4 VisualFormat profile : Advanced Simple@L5Format settings, BVOP : 2Format settings, QPel : NoFormat settings, GMC : No warppointsFormat settings, Matrix : Default (H.263)Codec ID : XVIDCodec ID/Hint : XviDDuration : 19mn 11sBit rate : 1 198 KbpsWidth : 640 pixelsHeight : 480 pixelsDisplay aspect ratio : 4:3Frame rate : 25.000 fpsColor space : YUVChroma subsampling : 4:2:0Bit depth : 8 bitsScan type : ProgressiveCompression mode : LossyBits/(Pixel*Frame) : 0.156Stream size : 164 MiB (90%)Writing library : XviD 64
AudioID : 1Format : MPEG AudioFormat version : Version 1Format profile : Layer 3Mode : Joint stereoMode extension : MS StereoCodec ID : 55Codec ID/Hint : MP3Duration : 19mn 11sBit rate mode : ConstantBit rate : 128 KbpsChannel(s) : 2 channelsSampling rate : 44.1 KHzCompression mode : LossyStream size : 17.5 MiB (10%)Alignment : Split accross interleavesInterleave, duration : 40 ms (1.00 video frame)Interleave, preload duration : 501 ms

Скриншоты



[torrentc.info]_t_5309774.torrent
Торрент: Зарегистрирован ·  [ 2017-03-12 09:54 ] ·  8432eabd1ede79331f4f34226b4ee8508f9c3d00

15 KB

Статус: проверено
Скачан: 0 раз
Размер: 183 MB
Оценка: 
(Голосов: 0)
Сказали спасибо: 0  Спасибо
Похожие темы
[Профиль]    [ЛС]
Показать сообщения:    
Ответить на тему

Текущее время: Сегодня 09:40

Часовой пояс: GMT + 7



Вы не можете начинать темы
Вы не можете отвечать на сообщения
Вы не можете редактировать свои сообщения
Вы не можете удалять свои сообщения
Вы не можете голосовать в опросах
Вы не можете прикреплять файлы к сообщениям
Вы можете скачивать файлы