Мальчик и лучик (Кузьма Кресницкий) [1987, СССР, Рисованный мультфильм, DVDRip]

Ответить на тему
Статистика раздачи [Обновить пиров]
Размер:  110 MB   |    Зарегистрирован:  1 год 11 месяцев   |    Скачан:  0 раз

Полного источника не было: Никогда

 
   
 
 
 
Автор Сообщение

torrentc.info

Создавать темы 12-Мар-2017 09:54

[Цитировать]

Мальчик и лучик
Страна: СССР
Жанр: Рисованный мультфильм
Продолжительность: 00:08:58
Год выхода: 1987
Русские субтитры: нет
Режиссёр: Кузьма Кресницкий
Роли озвучивали: В.Кавалерова,С.Никончик,Ю.Космачева
Описание: Мама солнце, отправила к земле своих детишек – лучиков, прилетев на землю и наигравшись вдоволь один из маленьких лучиков забредает в дом где болеет простудой маленький мальчик, ему нужно тепло солнышка и лучик решает помочь мальчику обратившись к своей маме….
Доп. информация:
«Беларусь-фильм»
Сценарий: А.Дударев
Оператор:Ю.Мильтнер
Монтаж: С.Аксенов
Композитор:В.Курьян
Раздача группы:
Качество: DVDRip
Формат файла: AVI
Видео: 704x528 (1.33:1), 25 fps, XviD build 50 ~1510 kbps avg, 0.16 bit/pixel
Аудио: 44.100 kHz, MPEG Layer 3, 2 ch, ~192.00 kbps avg
Субтитры: нет

Подробные технические данные

ormat : AVIFormat/Info : Audio Video InterleaveFile size : 110 MiBDuration : 8mn 58sOverall bit rate : 1 716 KbpsWriting application : MEncoder SVN-r30881(20100311-gcc4.3.3)Writing library : MPlayer
VideoID : 0Format : MPEG-4 VisualFormat profile : Advanced Simple@L5Format settings, BVOP : 2Format settings, QPel : NoFormat settings, GMC : No warppointsFormat settings, Matrix : Default (H.263)Codec ID : XVIDCodec ID/Hint : XviDDuration : 8mn 58sBit rate : 1 511 KbpsWidth : 704 pixelsHeight : 528 pixelsDisplay aspect ratio : 4:3Original display aspect ratio : 4:3Frame rate : 25.000 fpsColor space : YUVChroma subsampling : 4:2:0Bit depth : 8 bitsScan type : ProgressiveCompression mode : LossyBits/(Pixel*Frame) : 0.163Stream size : 97.0 MiB (88%)Writing library : XviD 1.2.1 (UTC 2008-12-04)
AudioID : 1Format : MPEG AudioFormat version : Version 1Format profile : Layer 3Mode : Joint stereoMode extension : MS StereoCodec ID : 55Codec ID/Hint : MP3Duration : 8mn 58sBit rate mode : ConstantBit rate : 192 KbpsChannel(s) : 2 channelsSampling rate : 44.1 KHzCompression mode : LossyDelay relative to video : 40msStream size : 12.3 MiB (11%)Alignment : Aligned on interleavesInterleave, duration : 26 ms (0.65 video frame)Interleave, preload duration : 522 msWriting library : LAME3.98

Источник: torrentc

Источник: torrentc с [url=viewtopic.php?t=3603446]http://torrentc/forum/viewtopic.php?t=3603446[/url]
Тут --

Скриншоты



[torrentc.info]_t_5312771.torrent
Торрент: Зарегистрирован ·  [ 2017-03-12 09:54 ] ·  b9dec64a9384703c0983eef01c12265d4ce1495b

9 KB

Статус: проверено
Скачан: 0 раз
Размер: 110 MB
Оценка: 
(Голосов: 0)
Сказали спасибо: 0  Спасибо
Похожие темы
[Профиль]    [ЛС]
Показать сообщения:    
Ответить на тему

Текущее время: Сегодня 16:46

Часовой пояс: GMT + 7



Вы не можете начинать темы
Вы не можете отвечать на сообщения
Вы не можете редактировать свои сообщения
Вы не можете удалять свои сообщения
Вы не можете голосовать в опросах
Вы не можете прикреплять файлы к сообщениям
Вы можете скачивать файлы