Пингвины (Владимир Полковников) [1968, CCCР, Рисованный мультфильм, WEBRip]

Ответить на тему
Статистика раздачи [Обновить пиров]
Размер:  205 MB   |    Зарегистрирован:  1 год 11 месяцев   |    Скачан:  0 раз

Полного источника не было: Никогда

 
   
 
 
 
Автор Сообщение

torrentc.info

Создавать темы 12-Мар-2017 09:54

[Цитировать]

Пингвины
Страна: CCCР
Жанр: Рисованный мультфильм
Продолжительность: 00:12:50
Год выхода: 1968
Русские субтитры: нет
Режиссёр: Владимир Полковников
Роли озвучивали: А.Консовский
Описание: Драматическая история, произошедшая в далекой Антарктиде, куда на лето приплывают пингвины выводить птенцов.
Доп. информация: «Союзмультфильм»
Сценарий: А.Митяев
Оператор:Н.Климова
Редактор: З.Павлова
Композитор:В.Кончаков
:

Качество: WEBRip
Формат файла: AVI
Видео: 640x480 (1.33:1), 25 fps, XviD MPEG-4 ~2100 kbps avg, 0.27 bit/pixel
Аудио: 48 kHz, AC3 Dolby Digital, 1/0 (C) ch, ~128.00 kbps avg
Субтитры: нет

Подробные технические данные

Format : AVIFormat/Info : Audio Video InterleaveFile size : 205 MiBDuration : 12mn 50sOverall bit rate : 2 238 KbpsWriting application : VirtualDubModRus 1.5.10.2 (build 2542/release)Copyright : torrentc : WEBRip by dvdss
VideoID : 0Format : MPEG-4 VisualFormat profile : Advanced Simple@L5Format settings, BVOP : 2Format settings, QPel : NoFormat settings, GMC : No warppointsFormat settings, Matrix : CustomCodec ID : XVIDCodec ID/Hint : XviDDuration : 12mn 50sBit rate : 2 100 KbpsWidth : 640 pixelsHeight : 480 pixelsDisplay aspect ratio : 5:4Original display aspect ratio : 4:3Frame rate : 25.000 fpsColor space : YUVChroma subsampling : 4:2:0Bit depth : 8 bitsScan type : ProgressiveCompression mode : LossyBits/(Pixel*Frame) : 0.273Stream size : 193 MiB (94%)Writing library : XviD 65
AudioID : 1Format : AC-3Format/Info : Audio Coding 3Mode extension : CM (complete main)Format settings, Endianness : BigCodec ID : 2000Duration : 12mn 50sBit rate mode : ConstantBit rate : 128 KbpsChannel(s) : 1 channelChannel positions : Front: CSampling rate : 48.0 KHzBit depth : 16 bitsCompression mode : LossyStream size : 11.7 MiB (6%)Alignment : Aligned on interleavesInterleave, duration : 40 ms (1.00 video frame)Interleave, preload duration : 512 ms

Источник: torrentc

Источник: torrentc с [url=viewtopic.php?t=2961197]http://torrentc/forum/viewtopic.php?t=2961197[/url]
Тут --

Скриншоты




[torrentc.info]_t_5313831.torrent
Торрент: Зарегистрирован ·  [ 2017-03-12 09:54 ] ·  9ddcc1ff1c89b5a4000f76040d4e2729cf8aab34

16 KB

Статус: проверено
Скачан: 0 раз
Размер: 205 MB
Оценка: 
(Голосов: 0)
Сказали спасибо: 0  Спасибо
Похожие темы
[Профиль]    [ЛС]
Показать сообщения:    
Ответить на тему

Текущее время: Сегодня 10:19

Часовой пояс: GMT + 7



Вы не можете начинать темы
Вы не можете отвечать на сообщения
Вы не можете редактировать свои сообщения
Вы не можете удалять свои сообщения
Вы не можете голосовать в опросах
Вы не можете прикреплять файлы к сообщениям
Вы можете скачивать файлы