Чоко (Гаяне Мартиросян) [1984, СССР, детский, кукольный мультфильм, Telesync]

Ответить на тему
Статистика раздачи [Обновить пиров]
Размер:  764 MB   |    Зарегистрирован:  1 год 11 месяцев   |    Скачан:  0 раз

Полного источника не было: Никогда

 
   
 
 
 
Автор Сообщение

torrentc.info

Создавать темы 12-Мар-2017 09:54

[Цитировать]

Чоко- Страна: СССР
Студия: Арменфильм
Жанр: детский, кукольный мультфильм
Год выхода: 1984
Продолжительность: 00:19:53-Режиссер: Гаяне Мартиросян-Описание: Мультфильм о дружбе мальчика и щенка по кличке «Чоко».-Доп. информация: За оцифровку с 35мм киноплёнки большое спасибо [url=profile.php?mode=viewprofile&u=8015908]persi-kot[/url]. : [img]https://static.t-ru.org/ranks/rg_mult.gif[/img]-Тип релиза: Telesync
Формат файла: MPG
Видео: 720x576 (4:3) @ 768x576, 25.000 fps, MPEG-2 Video, ~5006 Kbps, 0.483 bits/pixel
Аудио: Русский, 48.0 KHz, AC3, 2 ch, 256 Kbps

MediaInfo

GeneralComplete name : Чоко 1984 (Гаяне Мартиросян) Арменфильм.mpgFormat : MPEG-PSFile size : 764 MiBDuration : 19 min 53 sOverall bit rate mode : VariableOverall bit rate : 5 369 kb/s
VideoID : 224 (0xE0)Format : MPEG VideoFormat version : Version 2Format profile : Main@MainFormat settings, BVOP : YesFormat settings, Matrix : DefaultFormat settings, GOP : VariableFormat settings, picture structure : FrameDuration : 19 min 53 sBit rate mode : VariableBit rate : 5 006 kb/sMaximum bit rate : 9 400 kb/sWidth : 720 pixelsHeight : 576 pixelsDisplay aspect ratio : 4:3Frame rate : 25.000 FPSStandard : PALColor space : YUVChroma subsampling : 4:2:0Bit depth : 8 bitsScan type : InterlacedScan order : Top Field FirstCompression mode : LossyBits/(Pixel*Frame) : 0.483Time code of first frame : 00:00:00:00Time code source : Group of pictures headerGOP, Open/Closed : ClosedStream size : 712 MiB (93%)Color primaries : BT.601 PALTransfer characteristics : BT.470 System B, BT.470 System GMatrix coefficients : BT.601
AudioID : 189 (0xBD)-128 (0x80)Format : AC-3Format/Info : Audio Coding 3Mode extension : CM (complete main)Format settings, Endianness : BigMuxing mode : DVD-VideoDuration : 19 min 53 sBit rate mode : ConstantBit rate : 256 kb/sChannel(s) : 2 channelsChannel positions : Front: L RSampling rate : 48.0 kHzFrame rate : 31.250 FPS (1536 spf)Bit depth : 16 bitsCompression mode : LossyStream size : 36.4 MiB (5%)

Скриншоты



[torrentc.info]_t_5365150.torrent
Торрент: Зарегистрирован ·  [ 2017-03-12 09:54 ] ·  81c0918092682bcc8380592b199829eb5e4922d5

15 KB

Статус: проверено
Скачан: 0 раз
Размер: 764 MB
Оценка: 
(Голосов: 0)
Сказали спасибо: 0  Спасибо
Похожие темы
[Профиль]    [ЛС]
Показать сообщения:    
Ответить на тему

Текущее время: Сегодня 10:16

Часовой пояс: GMT + 7



Вы не можете начинать темы
Вы не можете отвечать на сообщения
Вы не можете редактировать свои сообщения
Вы не можете удалять свои сообщения
Вы не можете голосовать в опросах
Вы не можете прикреплять файлы к сообщениям
Вы можете скачивать файлы