Недетское кино / Not Another Teen Movie (Джоел Галлен / Joel Gallen) [2001, США, комедия, BDRip-AVC] [Театральная версия / Theatrical Cut] MVO (Видео-Сервис Video CD)+ AVO (Евгений Гранкин) + Sub (Rus, Eng) + Original Eng

Ответить на тему
Статистика раздачи [Обновить пиров]
Размер:  2.17 GB   |    Зарегистрирован:  1 год 7 месяцев   |    Скачан:  0 раз

Полного источника не было: Никогда

 
   
 
 
 
Автор Сообщение

torrentc.info

Создавать темы 14-Фев-2017 19:18

[Цитировать]

Недетское кино / Not Another Teen Movie-Театральная версия / Theatrical Cut
Страна: США
Студия: Columbia Pictures Corporation, Original Film, Neal H. Moritz Productions
Жанр: комедия
Год выхода: 2001
Продолжительность: 01:29:00
Перевод 1: Профессиональный (многоголосый закадровый) Видео-Сервис Video CD
Перевод 2: Авторский (одноголосый закадровый) Евгений Гранкин
Cубтитры: русские, английские
Оригинальная аудиодорожка: английский
Режиссер: Джоел Галлен / Joel Gallen
В ролях: Кайлер Ли, Крис Эванс, Джейми Прессли, Эрик Кристиан Олсен, Миа Киршнер, Дион Ричмонд, Эрик Джангманн, Рон Лестер, Коди МакМейнс, Сэм Хантингтон
Описание: Популярный в школе парень и звезда футбольной команды Джейк Уилер, ослепленный собственной славой и успехом, заключает пари со своими друзьями.
Уилер делает ставку на то, что может сделать из любой девушки, посещающей их школу королеву школьного бала. Друзья сразу же выбирают предмет своей шутки — внешне малопривлекательную начинающую художницу Джэни Бриггс, чей комбинезон всегда в краске, которая носит очки и собирает свои волосы в «хвост». Джэни является изгоем в своем классе, однако пройдя через ряд событий, Уиллер понимает, что он любит этого «гадкого утенка»…
Автор рипа: Sem-te
Релиз группы: :

Качество видео: [url=viewtopic.php?t=5340840]BD[/url]Rip-AVC (Источник: Torrentc.org Sem-te | BDRemux 1080p)
Формат файла: MKV
Видео: MPEG-4 AVC, 2660 Кбит/с, 1024x552, 23.976 fps
Аудио 1: 48 kHz, AC3 Dolby Digital, 2/0 (L,R) ch, ~224 kbps | Видео-Сервис Video CD
Аудио 2: 48 kHz, AC3 Dolby Digital, 2/0 (L,R) ch, ~224 kbps | Евгений Гранкин
Аудио 3: 48 kHz, AC3 Dolby Digital, 3/2 (L,C,R,l,r) + LFE ch, ~384 kbps |Original

log x264

avs [info]: 1024x552p 1:1 @ 2997/125 fps (cfr)
x264 [info]: using SAR=1/1
x264 [info]: using cpu capabilities: MMX2 SSE2Fast SSSE3 SSE4.2
x264 [info]: profile High, level 4.1
x264 [info]: frame I:1201 Avg QP:18.20 size:106489
x264 [info]: frame P:27238 Avg QP:21.43 size: 30309
x264 [info]: frame B:99601 Avg QP:24.09 size: 8247
x264 [info]: consecutive B-frames: 1.7% 2.5% 6.0% 25.2% 18.0% 34.7% 5.8% 4.1% 1.0% 0.3% 0.2% 0.4%
x264 [info]: mb I I16..4: 13.5% 62.7% 23.7%
x264 [info]: mb P I16..4: 0.6% 8.4% 1.4% P16..4: 30.2% 35.8% 12.5% 2.3% 0.3% skip: 8.5%
x264 [info]: mb B I16..4: 0.0% 0.9% 0.1% B16..8: 39.4% 16.6% 2.8% direct: 4.0% skip:36.1% L0:43.7% L1:48.0% BI: 8.3%
x264 [info]: 8x8 transform intra:77.8% inter:62.8%
x264 [info]: direct mvs spatial:98.7% temporal:1.3%
x264 [info]: coded y,uvDC,uvAC intra: 91.7% 87.7% 66.0% inter: 23.7% 19.7% 4.4%
x264 [info]: i16 v,h,dc,p: 26% 12% 17% 44%
x264 [info]: i8 v,h,dc,ddl,ddr,vr,hd,vl,hu: 12% 7% 7% 10% 14% 14% 13% 12% 11%
x264 [info]: i4 v,h,dc,ddl,ddr,vr,hd,vl,hu: 13% 7% 5% 9% 14% 15% 13% 12% 12%
x264 [info]: i8c dc,h,v,p: 40% 20% 19% 21%
x264 [info]: Weighted P-Frames: Y:1.5% UV:0.6%
x264 [info]: ref P L0: 43.2% 11.7% 19.9% 5.8% 5.9% 3.4% 3.8% 1.6% 1.9% 1.2% 1.6% 0.1% 0.0%
x264 [info]: ref B L0: 74.6% 11.4% 5.2% 2.7% 1.8% 1.6% 1.2% 0.8% 0.4% 0.2%
x264 [info]: ref B L1: 93.6% 6.4%
x264 [info]: kb/s:2658.77
x264 [total]: encoded 128040 frames, 0.72 fps, 2658.77 kb/s
MediaInfoGeneral
Unique ID : 224614766792689508013428667871257098993 (0xA8FB3B0421205DD88EFEBDD1377AFAF1)
Format : Matroska
Format version : Version 2
File size : 2.17 GiB
Duration : 1h 29mn
Overall bit rate : 3 493 Kbps
Movie name : Sem-te
Encoded date : UTC 2017-01-21 08:24:05
Writing application : mkvmerge v7.8.0 ('River Man') 32bit built on Apr 3 2015 12:11:22
Writing library : libebml v1.3.1 + libmatroska v1.4.2
Video
ID : 1
Format : AVC
Format/Info : Advanced Video Codec
Format profile : High@L4.1
Format settings, CABAC : Yes
Format settings, ReFrames : 11 frames
Codec ID : V_MPEG4/ISO/AVC
Duration : 1h 29mn
Bit rate : 2 660 Kbps
Width : 1 024 pixels
Height : 552 pixels
Display aspect ratio : 1.85:1
Frame rate mode : Constant
Frame rate : 23.976 fps
Color space : YUV
Chroma subsampling : 4:2:0
Bit depth : 8 bits
Scan type : Progressive
Bits/(Pixel*Frame) : 0.196
Stream size : 1.61 GiB (74%)
Writing library : x264 core 146 r2538 121396c
Encoding settings : cabac=1 / ref=11 / deblock=1:-2:-1 / analyse=0x3:0x133 / me=umh / subme=11 / psy=1 / psy_rd=1.00:0.20 / mixed_ref=1 / me_range=48 / chroma_me=1 / trellis=2 / 8x8dct=1 / cqm=0 / deadzone=21,11 / fast_pskip=1 / chroma_qp_offset=-3 / threads=3 / lookahead_threads=1 / sliced_threads=0 / nr=0 / decimate=1 / interlaced=0 / bluray_compat=0 / constrained_intra=0 / bframes=11 / b_pyramid=2 / b_adapt=2 / b_bias=0 / direct=3 / weightb=1 / open_gop=0 / weightp=2 / keyint=250 / keyint_min=23 / scenecut=40 / intra_refresh=0 / rc_lookahead=60 / rc=2pass / mbtree=1 / bitrate=2660 / ratetol=1.0 / qcomp=0.60 / qpmin=0 / qpmax=69 / qpstep=4 / cplxblur=20.0 / qblur=0.5 / ip_ratio=1.40 / aq=1:1.00
Default : Yes
Forced : No
Audio #1
ID : 2
Format : AC-3
Format/Info : Audio Coding 3
Mode extension : CM (complete main)
Format settings, Endianness : Big
Codec ID : A_AC3
Duration : 1h 29mn
Bit rate mode : Constant
Bit rate : 224 Kbps
Channel(s) : 2 channels
Channel positions : Front: L R
Sampling rate : 48.0 KHz
Bit depth : 16 bits
Compression mode : Lossy
Stream size : 143 MiB (6%)
Title : Видео-Сервис Video CD [MVO]
Language : Russian
Default : Yes
Forced : No
Audio #2
ID : 3
Format : AC-3
Format/Info : Audio Coding 3
Mode extension : CM (complete main)
Format settings, Endianness : Big
Codec ID : A_AC3
Duration : 1h 29mn
Bit rate mode : Constant
Bit rate : 224 Kbps
Channel(s) : 2 channels
Channel positions : Front: L R
Sampling rate : 48.0 KHz
Bit depth : 16 bits
Compression mode : Lossy
Stream size : 143 MiB (6%)
Title : Евгений Гранкин [AVO]
Language : Russian
Default : No
Forced : No
Audio #3
ID : 4
Format : AC-3
Format/Info : Audio Coding 3
Mode extension : CM (complete main)
Format settings, Endianness : Big
Codec ID : A_AC3
Duration : 1h 29mn
Bit rate mode : Constant
Bit rate : 384 Kbps
Channel(s) : 6 channels
Channel positions : Front: L C R, Side: L R, LFE
Sampling rate : 48.0 KHz
Bit depth : 16 bits
Compression mode : Lossy
Stream size : 244 MiB (11%)
Title : Original
Language : English
Default : No
Forced : No
Text #1
ID : 5
Format : UTF-8
Codec ID : S_TEXT/UTF8
Codec ID/Info : UTF-8 Plain Text
Language : Russian
Default : No
Forced : No
Text #2
ID : 6
Format : UTF-8
Codec ID : S_TEXT/UTF8
Codec ID/Info : UTF-8 Plain Text
Language : English
Default : No
Forced : No

Скриншоты

Источник: Torrentc.org

[url=viewtopic.php?t=3722919]http://Torrentc.org/forum/viewtopic.php?t=3722919[/url]

Source vs Encode

Source vs Encode


[torrentc.info]_torrent-5343318.torrent
Торрент: Зарегистрирован ·  [ 2017-02-14 19:18 ] ·  febc4d4f51fd2dcbb8f8812cb202b25e19b6c067

11 KB

Статус: проверено
Скачан: 0 раз
Размер: 2.17 GB
Оценка: 
(Голосов: 0)
Сказали спасибо: 0  Спасибо
Похожие темы
[Профиль]    [ЛС]
Показать сообщения:    
Ответить на тему

Текущее время: Сегодня 06:57

Часовой пояс: GMT + 7



Вы не можете начинать темы
Вы не можете отвечать на сообщения
Вы не можете редактировать свои сообщения
Вы не можете удалять свои сообщения
Вы не можете голосовать в опросах
Вы не можете прикреплять файлы к сообщениям
Вы можете скачивать файлы