Старик и журавль (Анатолий Каранович, Роман Качанов) [1958, СССР, Кукольная, DVB]

Ответить на тему
Статистика раздачи [Обновить пиров]
Размер:  225 MB   |    Зарегистрирован:  1 год 11 месяцев   |    Скачан:  0 раз

Полного источника не было: Никогда

 
   
 
 
 
Автор Сообщение

torrentc.info

Создавать темы 12-Мар-2017 09:54

[Цитировать]

Старик и журавль
Страна: СССР
Жанр: Кукольная
Продолжительность: 0:09:44
Год выхода: 1958
Перевод: Не требуется
Русские субтитры: нет
Режиссёр: Анатолий Каранович, Роман Качанов
Описание: По мотивам народных сказок о волшебном помощнике Журавле, который защитил бедного рыбака от жадного мельника.
Семпл: http://sendfile.su/1314221
Качество: DVB (IPTV)
Формат файла: MPG
Видео: MPEG2 Video, 704x576, 25 fps, 2 971 Kbps
Аудио: MPEG Audio, 2 сh, 48 kHz, 192 kbps
Субтитры: Отсутствуют

Подробные технические данные

GeneralComplete name : D:\Старик и журавль.mpgFormat : MPEG-PSFile size : 225 MiBDuration : 9mn 43sOverall bit rate mode : VariableOverall bit rate : 3 227 Kbps
VideoID : 224 (0xE0)Format : MPEG VideoFormat version : Version 2Format profile : Main@MainFormat settings, BVOP : YesFormat settings, Matrix : CustomFormat settings, GOP : M=3, N=45Format settings, picture struc : FrameDuration : 9mn 43sBit rate mode : VariableBit rate : 2 971 KbpsMaximum bit rate : 15.0 MbpsWidth : 704 pixelsHeight : 576 pixelsDisplay aspect ratio : 4:3Frame rate : 25.000 fpsStandard : PALColor space : YUVChroma subsampling : 4:2:0Bit depth : 8 bitsScan type : InterlacedScan order : Top Field FirstCompression mode : LossyBits/(Pixel*Frame) : 0.293Time code of first frame : 00:00:00:00Time code source : Group of pictures headerGOP, Open/Closed : OpenStream size : 207 MiB (92%)
AudioID : 192 (0xC0)Format : MPEG AudioFormat version : Version 1Format profile : Layer 2Duration : 9mn 43sBit rate mode : ConstantBit rate : 192 KbpsChannel(s) : 2 channelsSampling rate : 48.0 KHzCompression mode : LossyDelay relative to video : 6msStream size : 13.4 MiB (6%)

Скриншоты








[torrentc.info]_t_5366666.torrent
Торрент: Зарегистрирован ·  [ 2017-03-12 09:54 ] ·  12ac4f825e5236bfaa5f96fa595aaf6e67eb5ed3

18 KB

Статус: проверено
Скачан: 0 раз
Размер: 225 MB
Оценка: 
(Голосов: 0)
Сказали спасибо: 0  Спасибо
Похожие темы
[Профиль]    [ЛС]
Показать сообщения:    
Ответить на тему

Текущее время: Сегодня 14:07

Часовой пояс: GMT + 7



Вы не можете начинать темы
Вы не можете отвечать на сообщения
Вы не можете редактировать свои сообщения
Вы не можете удалять свои сообщения
Вы не можете голосовать в опросах
Вы не можете прикреплять файлы к сообщениям
Вы можете скачивать файлы