История любви / Історія кохання (Сергей Гизила, Сергей Миндлин) [1992, Украина, мультфильм для взрослых, WEBRip]

Ответить на тему
Статистика раздачи [Обновить пиров]
Размер:  141 MB   |    Зарегистрирован:  1 год 11 месяцев   |    Скачан:  0 раз

Полного источника не было: Никогда

 
   
 
 
 
Автор Сообщение

torrentc.info

Создавать темы 12-Мар-2017 09:54

[Цитировать]

История любви / Історія кохання
Страна: Украина
Жанр: мультфильм для взрослых
Продолжительность: 00:09:41
Год выхода: 1992
Перевод: не требуется
Режиссёры: Сергей Гизила, Сергей Миндлин
Описание: Насмотревшись в кинотеатре эротики, червяк отправляется искать свою вторую половинку. Это оказывается не так просто.

Качество: WEBRip
Формат файла: AVI
Видео: 1889 kbps, 640х480 (4:3), 25.000 fps, MPEG-4 Visual (XviD)
Аудио: 128 kbps, 44.1 kHz, 2 channels, MPEG Audio (MP3)
Субтитры: отсутствуют

Подробные технические данные

GeneralComplete name : Історія кохання (1992).aviFormat : AVIFormat/Info : Audio Video InterleaveFile size : 141 MiBDuration : 9mn 41sOverall bit rate : 2 030 KbpsWriting application : Lavf57.25.100
VideoID : 0Format : MPEG-4 VisualFormat profile : Simple@L3Format settings, BVOP : NoFormat settings, QPel : NoFormat settings, GMC : No warppointsFormat settings, Matrix : Default (H.263)Codec ID : XVIDCodec ID/Hint : XviDDuration : 9mn 41sBit rate : 1 889 KbpsWidth : 640 pixelsHeight : 480 pixelsDisplay aspect ratio : 4:3Frame rate : 25.000 fpsColor space : YUVChroma subsampling : 4:2:0Bit depth : 8 bitsScan type : ProgressiveCompression mode : LossyBits/(Pixel*Frame) : 0.246Stream size : 131 MiB (93%)Writing library : XviD 67
AudioID : 1Format : MPEG AudioFormat version : Version 1Format profile : Layer 3Codec ID : 55Codec ID/Hint : MP3Duration : 9mn 41sBit rate mode : ConstantBit rate : 128 KbpsChannel(s) : 2 channelsSampling rate : 44.1 KHzCompression mode : LossyStream size : 8.88 MiB (6%)Alignment : Aligned on interleavesInterleave, duration : 26 ms (0.65 video frame)Interleave, preload duration : 26 msWriting library : LAME3.99.5

Скриншоты



[torrentc.info]_t_5366930.torrent
Торрент: Зарегистрирован ·  [ 2017-03-12 09:54 ] ·  dff4e0b45518230ab8b1b603c4027a2a47625c6a

12 KB

Статус: проверено
Скачан: 0 раз
Размер: 141 MB
Оценка: 
(Голосов: 0)
Сказали спасибо: 0  Спасибо
Похожие темы
[Профиль]    [ЛС]
Показать сообщения:    
Ответить на тему

Текущее время: Сегодня 16:05

Часовой пояс: GMT + 7



Вы не можете начинать темы
Вы не можете отвечать на сообщения
Вы не можете редактировать свои сообщения
Вы не можете удалять свои сообщения
Вы не можете голосовать в опросах
Вы не можете прикреплять файлы к сообщениям
Вы можете скачивать файлы