Легенда о сыне (Мунавар Мансурходжаев) [1983, СССР, мультфильм, WEBRip]

Ответить на тему
Статистика раздачи [Обновить пиров]
Размер:  143 MB   |    Зарегистрирован:  1 год 11 месяцев   |    Скачан:  0 раз

Полного источника не было: Никогда

 
   
 
 
 
Автор Сообщение

torrentc.info

Создавать темы 12-Мар-2017 09:54

[Цитировать]

Легенда о сыне
Страна: СССР (Таджикская республика)
Жанр: мультфильм
Продолжительность: 00:09:43
Год выхода: 1983
Режиссёр: Мунавар Мансурходжаев
Описание: По мотивам таджикской сказки.
От злобных сил охранял страну Богатырь и никто не мог его сокрушить. И однажды злой Див предсказал, что погибнет он от "белоголового сына". Богатырь лишь рассмеялся, но вскоре его супруга родила ребёнка с белыми волосами...
Качество: WEBRip
Формат файла: AVI
Видео: 1918 kbps, 656х496 (4:3), 25.000 fps, MPEG-4 Visual (XviD)
Аудио: 128 kbps, 44.1 kHz, 2 channels, MPEG Audio (MP3)
Субтитры: отсутствуют

Подробные технические данные

GeneralComplete name : Легенда о сыне. 1983.aviFormat : AVIFormat/Info : Audio Video InterleaveFile size : 143 MiBDuration : 9mn 43sOverall bit rate : 2 056 KbpsWriting application : VirtualDubMod 1.5.10.2 (build 2540/release)Writing library : VirtualDubMod build 2540/release
VideoID : 0Format : MPEG-4 VisualFormat profile : Advanced Simple@L4Format settings, BVOP : 2Format settings, QPel : NoFormat settings, GMC : No warppointsFormat settings, Matrix : Default (H.263)Codec ID : XVIDCodec ID/Hint : XviDDuration : 9mn 43sBit rate : 1 918 KbpsWidth : 656 pixelsHeight : 496 pixelsDisplay aspect ratio : 4:3Frame rate : 25.000 fpsColor space : YUVChroma subsampling : 4:2:0Bit depth : 8 bitsScan type : ProgressiveCompression mode : LossyBits/(Pixel*Frame) : 0.236Stream size : 133 MiB (93%)Writing library : XviD 73
AudioID : 1Format : MPEG AudioFormat version : Version 1Format profile : Layer 3Codec ID : 55Codec ID/Hint : MP3Duration : 9mn 43sBit rate mode : ConstantBit rate : 128 KbpsChannel(s) : 2 channelsSampling rate : 44.1 KHzCompression mode : LossyStream size : 8.90 MiB (6%)Alignment : Split accross interleavesInterleave, duration : 40 ms (1.00 video frame)Interleave, preload duration : 500 ms

Скриншоты



[torrentc.info]_t_5367402.torrent
Торрент: Зарегистрирован ·  [ 2017-03-12 09:54 ] ·  a98196fc2aadeed04c2bc40fa8ebf1570a92ab1f

12 KB

Статус: проверено
Скачан: 0 раз
Размер: 143 MB
Оценка: 
(Голосов: 0)
Сказали спасибо: 0  Спасибо
Похожие темы
[Профиль]    [ЛС]
Показать сообщения:    
Ответить на тему

Текущее время: Сегодня 09:53

Часовой пояс: GMT + 7



Вы не можете начинать темы
Вы не можете отвечать на сообщения
Вы не можете редактировать свои сообщения
Вы не можете удалять свои сообщения
Вы не можете голосовать в опросах
Вы не можете прикреплять файлы к сообщениям
Вы можете скачивать файлы