[DSD][SACD] After Forever - Remagine - 2005 (Symphonic Power / Gothic Metal)

Ответить на тему
Статистика раздачи [Обновить пиров]
Размер:  3.48 GB   |    Зарегистрирован:  1 год 11 месяцев   |    Скачан:  1 раз

Полного источника не было: 6 месяцев

 
   
 
 
 
Автор Сообщение

torrentc.info

Создавать темы 12-Мар-2017 05:30

[Цитировать]

After Forever / Remagine
Формат файла записи/Источник записи: [DSD][SACD]
Наличие водяных знаков: Нет
Год издания/переиздания диска: 2005
Жанр: Symphonic Power / Gothic Metal
Издатель (лейбл): Transmission Records
Номер по каталогу: TMSA-055
Продолжительность: 01:00:31
Наличие сканов в содержимом раздачи: Да (сканы)
Формат файла: DFF (*.dff)
Тип рипа: image+.cue
Разрядность: 64(2,8 MHz/1 Bit)
Формат файла: DST64
Количество каналов: 5.1, стерео
Источник (релизер): собственный рип
Дополнительная информация:
http://www.metal-archives.com/albums/After_Forever/Remagine/86623
https://www.discogs.com/After-Forever-Remagine/release/1995459
http://sa-cd.net/showtitle/3300
Треклист:
1. Enter (1:06)
2. Come (5:02)
3. Boundaries are open (3:44)
4. Living shields (4:11)
5. Being everyone (3:37)
6. Attendance (3:27)
7. Free of doubt (4:40)
8. Only everything (6:33)
9. Strong (3:38)
10. Face your demons (4:57)
11. No control (3:17)
12. Forever (5:10)
Бонусы:
13. Taste the day (2:54)
14. Live and learn (4:16)
15. Strong (piano version) (3:40)

Лог проверки качества (5.1)

foobar2000 1.3.10 / Замер динамического диапазона (DR) 1.1.1Дата отчёта: 2017-03-04 20:23:27
--------------------------------------------------------------------------------Анализ: After Forever / Remagine--------------------------------------------------------------------------------
DR Пики RMS Продолжительность трека--------------------------------------------------------------------------------DR12 -1.25 дБ -18.29 дБ 1:06 01-ENTERDR13 0.00 дБ -15.23 дБ 5:02 02-COMEDR12 0.00 дБ -15.28 дБ 3:44 03-BOUNDARIES ARE OPENDR12 0.00 дБ -15.32 дБ 4:13 04-LIVING SHIELDSDR12 0.00 дБ -15.69 дБ 3:39 05-BEING EVERYONEDR12 0.00 дБ -15.71 дБ 3:29 06-ATTENDANCEDR12 0.00 дБ -15.66 дБ 4:42 07-FREE OF DOUBTDR12 0.00 дБ -15.86 дБ 6:36 08-ONLY EVERYTHINGDR12 0.00 дБ -18.64 дБ 3:40 09-STRONGDR13 0.00 дБ -15.15 дБ 4:57 10-FACE YOUR DEMONSDR13 0.00 дБ -15.03 дБ 3:18 11-NO CONTROLDR12 0.00 дБ -14.58 дБ 5:10 12-FOREVERDR10 -1.83 дБ -20.24 дБ 2:56 13-TASTE THE DAY *DR12 0.00 дБ -15.55 дБ 4:18 14-LIVE AND LEARN *DR11 -0.87 дБ -21.96 дБ 3:40 15-STRONG (piano version) *--------------------------------------------------------------------------------
Количество треков: 15Реальные значения DR: DR12
Частота: 2822400 Гц / Частота PCM: 88200 ГцКаналов: 6Разрядность: 24Битрейт: 16934 кбит/сКодек: DST64================================================================================

Лог проверки качества (Stereo)

foobar2000 1.3.10 / Замер динамического диапазона (DR) 1.1.1Дата отчёта: 2017-03-04 20:29:27
--------------------------------------------------------------------------------Анализ: After Forever / Remagine--------------------------------------------------------------------------------
DR Пики RMS Продолжительность трека--------------------------------------------------------------------------------DR10 -0.09 дБ -12.53 дБ 1:06 01-ENTERDR8 0.00 дБ -9.73 дБ 5:02 02-COMEDR7 0.00 дБ -8.77 дБ 3:44 03-BOUNDARIES ARE OPENDR9 0.00 дБ -9.91 дБ 4:13 04-LIVING SHIELDSDR8 0.00 дБ -10.05 дБ 3:39 05-BEING EVERYONEDR7 0.00 дБ -8.81 дБ 3:29 06-ATTENDANCEDR8 0.00 дБ -9.61 дБ 4:42 07-FREE OF DOUBTDR8 0.00 дБ -9.96 дБ 6:36 08-ONLY EVERYTHINGDR10 -0.04 дБ -14.27 дБ 3:40 09-STRONGDR9 0.00 дБ -9.98 дБ 4:57 10-FACE YOUR DEMONSDR9 0.00 дБ -9.76 дБ 3:18 11-NO CONTROLDR8 0.00 дБ -9.69 дБ 5:10 12-FOREVER--------------------------------------------------------------------------------
Количество треков: 12Реальные значения DR: DR8
Частота: 2822400 Гц / Частота PCM: 88200 ГцКаналов: 2Разрядность: 24Битрейт: 5645 кбит/сКодек: DST64================================================================================

Временной спектр (1 и 2 треки)

Частотный спектр (1 и 2 треки)

Сонограмма (1 и 2 треки)

Используемое оборудование:
Проигрыватель Pioneer DV-868 со встроенным контроллером USB для захвата многоканального потока DSD.
Образ CD-слоя: [url=viewtopic.php?t=3324693]http://torrentc/forum/viewtopic.php?t=3324693[/url]
Конверсия в DVD-Audio: [url=viewtopic.php?t=3324707]http://torrentc/forum/viewtopic.php?t=3324707[/url]


[torrentc.info]_t_5367247.torrent
Торрент: Зарегистрирован ·  [ 2017-03-12 05:30 ] ·  0221e1d43c76e43d7874a52fcd11974234929f74

36 KB

Статус: проверено
Скачан: 1 раз
Размер: 3.48 GB
Оценка: 
(Голосов: 0)
Сказали спасибо: 0  Спасибо
Похожие темы
[Профиль]    [ЛС]
Показать сообщения:    
Ответить на тему

Текущее время: Сегодня 16:04

Часовой пояс: GMT + 7



Вы не можете начинать темы
Вы не можете отвечать на сообщения
Вы не можете редактировать свои сообщения
Вы не можете удалять свои сообщения
Вы не можете голосовать в опросах
Вы не можете прикреплять файлы к сообщениям
Вы можете скачивать файлы