(Neoclassical / Ethereal / Neofolk) [CD] All My Faith Lost ... - As You\'re Vanishing In Silence (Remastered) - 2016 (2005), FLAC (image+.cue), lossless

Ответить на тему
Статистика раздачи [Обновить пиров]
Размер:  365 MB   |    Зарегистрирован:  1 год 11 месяцев   |    Скачан:  0 раз

Полного источника не было: Никогда

 
   
 
 
 
Автор Сообщение

torrentc.info

Создавать темы 12-Мар-2017 03:18

[Цитировать]

All My Faith Lost ... / As You're Vanishing In Silence
Жанр: Neoclassical / Ethereal / Neofolk
Носитель: CD
Год издания: 2016 (2005)
Издатель (лейбл): Dissemination Records
Номер по каталогу: none
Страна исполнителя (группы): Italy
Аудиокодек: FLAC (*.flac)
Тип рипа: image+.cue
Битрейт аудио: lossless
Продолжительность: 00:56:55
Источник (релизер): свой рип
Наличие сканов в содержимом раздачи: частично (см. P.S.)
Трек-лист:
01. Come Close My Lover. (01:46)
02. Your Silent Tears. (04:56)
03. Rain Has Fallen All The Day. (05:30)
04. She Came To Me. (05:13)
05. At That Hour. (06:20)
06. Triste Quiete. (06:18)
07. All Day I Hear Your Voice. (07:34)
08. Disclose Your Eyes. (03:37)
09. Sleep Now. (04:06)
10. Autumn. (04:08)
11. Silent Lady. (07:27)- -

Лог создания рипа

Exact Audio Copy V1.1 from 23. June 2015
EAC extraction logfile from 11. March 2017, 15:01
All My Faith Lost ... / As You're Vanishing In Silence
Used drive : PIONEER DVD-RW DVR-111D Adapter: 1 ID: 0
Read mode : SecureUtilize accurate stream : YesDefeat audio cache : YesMake use of C2 pointers : No
Read offset correction : 48Overread into Lead-In and Lead-Out : NoFill up missing offset samples with silence : YesDelete leading and trailing silent blocks : NoNull samples used in CRC calculations : YesUsed interface : Native Win32 interface for Win NT & 2000
Used output format : User Defined EncoderSelected bitrate : 1024 kBit/sQuality : HighAdd ID3 tag : NoCommand line compressor : D:\Flac\flac.exeAdditional command line options : -V -8 -T "Date=%year%" -T "Genre=%genre%" %source%
TOC of the extracted CD
Track | Start | Length | Start sector | End sector --------------------------------------------------------- 1 | 0:00.00 | 1:45.02 | 0 | 7876 2 | 1:45.02 | 4:55.04 | 7877 | 30005 3 | 6:40.06 | 5:29.38 | 30006 | 54718 4 | 12:09.44 | 5:12.65 | 54719 | 78183 5 | 17:22.34 | 6:19.46 | 78184 | 106654 6 | 23:42.05 | 6:17.14 | 106655 | 134943 7 | 29:59.19 | 7:33.12 | 134944 | 168930 8 | 37:32.31 | 3:36.20 | 168931 | 185150 9 | 41:08.51 | 4:05.31 | 185151 | 203556 10 | 45:14.07 | 4:07.70 | 203557 | 222151 11 | 49:22.02 | 7:26.44 | 222152 | 255645
Range status and errors
Selected range
Filename D:\Rips from Dаrkmind\All My Faith Lost ... - As You're Vanishing In Silence.wav
Peak level 98.8 % Extraction speed 6.8 X Range quality 99.9 % Test CRC 977065A4 Copy CRC 977065A4 Copy OK
No errors occurred
AccurateRip summary
Track 1 not present in databaseTrack 2 not present in databaseTrack 3 not present in databaseTrack 4 not present in databaseTrack 5 not present in databaseTrack 6 not present in databaseTrack 7 not present in databaseTrack 8 not present in databaseTrack 9 not present in databaseTrack 10 not present in databaseTrack 11 not present in database
None of the tracks are present in the AccurateRip database
End of status report
---- CUETools DB Plugin V2.1.6
[CTDB TOCID: IyNwRplfzCf2tu6tjSzF90eea.Y-] disk not present in databaseSubmit result: IyNwRplfzCf2tu6tjSzF90eea.Y- has been uploaded
==== Log checksum 9240CB76A9132B23ED57DA04189E0347E198FB76DE83AC2915207E4A435BA314 ====

Лог проверки качества

-----------------------
DON'T MODIFY THIS FILE
-----------------------
PERFORMER: auCDtect Task Manager, ver. 1.6.0 RC1 build 1.6.0.1Copyright (c) 2008-2010 y-soft. All rights reservedhttp://y-soft.org
ANALYZER: auCDtect: CD records authenticity detector, version 0.8.2Copyright (c) 2004 Oleg Berngardt. All rights reserved.Copyright (c) 2004 Alexander Djourik. All rights reserved.
FILE: All My Faith Lost ... - As You're Vanishing In Silence.flac Size: 324132586 Hash: D8FB2A1F48E933F9AA797967B3FA4D57 Accuracy: -m0 Conclusion: CDDA 100% Signature: 1B234438FCDF444D26D5C6B7082E412A723A8FE2

-

Доп. информация

Limited edition of 200 copies released in violet digibook with leather design and 28-page booklet.

Состав

Viola - lyrics, vocals, flutes, piano.
Federico - lyrics, vocals, guitars, sinth.
Francis - guitars, piano, sinth.
Violin on track 2 by Fabio Polo.
Viola and Violin on tracks 5, 7, 9, 10 by Corrado Cicuttin.

Credits

Music and Lyrics by All My Faith Lost ...
Composed, recorded and produced by All My Faith Lost ... during 2003.
Remixed and remastered by Paolo Rebellato at Moonlight Productions during October 2015.
Artwork concept and layout by Angelo Roccagli.
Artwork pictures by Alessandra Cirillo.
Model: Giulia Rossa.

-

P.S.

Из-за особенностей изготовления дигибука отсканировать буклет без повреждения крепления не представляется возможным. Желающие поддержать проект и купить диск с художественными фотографиями и с текстами песен могут сделать это здесь: allmyfaithlost.bandcamp.com


[torrentc.info]_t_5370980.torrent
Торрент: Зарегистрирован ·  [ 2017-03-12 03:18 ] ·  34304c20ac159c58673de5aaef755013c3eeb14a

16 KB

Статус: проверено
Скачан: 0 раз
Размер: 365 MB
Оценка: 
(Голосов: 0)
Сказали спасибо: 0  Спасибо
Похожие темы
[Профиль]    [ЛС]
Показать сообщения:    
Ответить на тему

Текущее время: Сегодня 09:50

Часовой пояс: GMT + 7



Вы не можете начинать темы
Вы не можете отвечать на сообщения
Вы не можете редактировать свои сообщения
Вы не можете удалять свои сообщения
Вы не можете голосовать в опросах
Вы не можете прикреплять файлы к сообщениям
Вы можете скачивать файлы