[TR24][OF] Maybe Spaceship - Noise From The Quiet - 2016 (Ambient, Experimental, IDM, Modern Classical)

Ответить на тему
Статистика раздачи [Обновить пиров]
Размер:  334 MB   |    Зарегистрирован:  1 год 11 месяцев   |    Скачан:  0 раз

Полного источника не было: Никогда

 
   
 
 
 
Автор Сообщение

torrentc.info

Создавать темы 12-Мар-2017 01:06

[Цитировать]

Maybe Spaceship / Noise From The Quiet
Формат файла записи/Источник записи: [TR24][OF]
Наличие водяных знаков: Нет
Год издания/переиздания диска: 2016
Жанр: Ambient, Experimental, IDM, Modern Classical
Издатель (лейбл): Maybe Spaceship
Продолжительность: 33:24
Наличие сканов в содержимом раздачи: Только обложка альбома
Треклист:
1. Novak
2. How Far It Could Be
3. Directional
4. Jump
5. Thousand and Thousands
6. Interpreter
7. Critical Mass
Формат файла: FLAC (*.flac)
Тип рипа: tracks
Разрядность: 24/44,1
Формат файла: PCM
Количество каналов: 2.0

DR Log

foobar2000 1.3.14 / Dynamic Range Meter 1.1.1log date: 2017-03-06 15:38:11
--------------------------------------------------------------------------------Analyzed: Maybe Spaceship / Noise From The Quiet--------------------------------------------------------------------------------
DR Peak RMS Duration Track--------------------------------------------------------------------------------DR8 -0.10 dB -11.90 dB 3:59 01-NovakDR10 -0.10 dB -12.68 dB 5:29 02-How Far It Could BeDR8 -0.10 dB -10.95 dB 4:10 03-DirectionalDR8 -0.10 dB -10.96 dB 6:23 04-JumpDR8 -0.10 dB -11.01 dB 5:36 05-Thousand and ThousandsDR11 -0.10 dB -13.84 dB 3:29 06-InterpreterDR9 -0.10 dB -12.43 dB 4:18 07-Critical Mass--------------------------------------------------------------------------------
Number of tracks: 7Official DR value: DR9
Samplerate: 44100 HzChannels: 2Bits per sample: 24Bitrate: 1164 kbpsCodec: FLAC================================================================================

Доп. информация

released April 11, 2016
Artwork by Hannah Matthew and Chance McDaniel
All songs were written, preformed, mixed, and mastered by Chance McDaniel.
Источник (релизер): https://maybespaceship.bandcamp.com/album/noise-from-the-quiet

Об альбоме (сборнике)

"This album is my pure expression. Because of that, I have a small amount of care towards the normal meaning of success, I mostly just want it to be something that you can connect with and possibly see a bit of yourself in. I see myself in it, and I put myself fully into the making of Noise From The Quiet. It is a holistic piece that I intended to be taken in as one experience. I will stop there and let you develop your own thoughts on this work and hopefully find something in it for yourself."


[torrentc.info]_t_5371091.torrent
Торрент: Зарегистрирован ·  [ 2017-03-12 01:06 ] ·  d5c93e7dd9d53240a22367c5ca9aa01d4c8ec2e1

14 KB

Статус: проверено
Скачан: 0 раз
Размер: 334 MB
Оценка: 
(Голосов: 0)
Сказали спасибо: 0  Спасибо
Похожие темы
[Профиль]    [ЛС]
Показать сообщения:    
Ответить на тему

Текущее время: Сегодня 09:52

Часовой пояс: GMT + 7



Вы не можете начинать темы
Вы не можете отвечать на сообщения
Вы не можете редактировать свои сообщения
Вы не можете удалять свои сообщения
Вы не можете голосовать в опросах
Вы не можете прикреплять файлы к сообщениям
Вы можете скачивать файлы