[TR24][OF] ASC - No Stars Without Darkness - 2016 (Ambient, Ambient techno, Deep techno)

Ответить на тему
Статистика раздачи [Обновить пиров]
Размер:  687 MB   |    Зарегистрирован:  1 год 11 месяцев   |    Скачан:  0 раз

Полного источника не было: Никогда

 
   
 
 
 
Автор Сообщение

torrentc.info

Создавать темы 12-Мар-2017 01:06

[Цитировать]

ASC / No Stars Without Darkness
Формат файла записи/Источник записи: [TR24][OF]
Наличие водяных знаков: Нет
Год издания/переиздания диска: 2016
Жанр: Ambient, Ambient techno, Deep techno
Издатель (лейбл): Silent Season - SSCD21
Продолжительность: 01:09:57
Наличие сканов в содержимом раздачи: Только обложка альбома
Треклист:
01. ASC - Parallels To Wander (7:04)
02. ASC - Idyll Of Sorrow (7:40)
03. ASC - The Waning Hours (7:22)
04. ASC - A Moment Alone (8:06)
05. ASC - All Come To Ruin (7:57)
06. ASC - Surrounded By Silence (6:53)
07. ASC - Nothing More To Give (8:00)
08. ASC - Elegy For An Empty Shell (7:15)
09. ASC - The Promise In Your Lies (9:40)*
Формат файла: FLAC (*.flac)
Тип рипа: tracks
Разрядность: 24/48
Формат файла: PCM
Количество каналов: 2.0

DR Log

foobar2000 1.3.14 / Dynamic Range Meter 1.1.1log date: 2017-03-01 04:01:29
--------------------------------------------------------------------------------Analyzed: ASC / No Stars Without Darkness--------------------------------------------------------------------------------
DR Peak RMS Duration Track--------------------------------------------------------------------------------DR10 0.00 dB -14.17 dB 7:05 01-Parallels To WanderDR11 0.00 dB -14.71 dB 7:41 02-Idyll Of SorrowDR10 0.00 dB -15.25 dB 7:22 03-The Waning HoursDR11 0.00 dB -14.42 dB 8:07 04-A Moment AloneDR11 0.00 dB -13.76 dB 7:57 05-All Come To RuinDR10 0.00 dB -12.63 dB 6:54 06-Surrounded By SilenceDR11 0.00 dB -14.38 dB 8:00 07-Nothing More To GiveDR10 0.00 dB -13.55 dB 7:15 08-Elegy For An Empty Shell--------------------------------------------------------------------------------
Number of tracks: 8Official DR value: DR10
Samplerate: 48000 HzChannels: 2Bits per sample: 24Bitrate: 1490 kbpsCodec: FLAC================================================================================Statistics for: 09-The Promise In Your LiesNumber of samples: 25578000Duration: 9:40--------------------------------------------------------------------------------
Left Right
Peak Value: -7.36 dB --- -7.74 dBAvg RMS: -21.00 dB --- -21.05 dBDR channel: 9.90 dB --- 9.90 dB--------------------------------------------------------------------------------
Official DR Value: DR10
Samplerate: 44100 HzChannels: 2Bits per sample: 24Bitrate: 1121 kbpsCodec: FLAC================================================================================

Доп. информация

*track 9 is 24bit-44khz.
Written, produced and mastered by James Clements
released October 28, 2016
Photography by DanthonSilent Season (c)2016 [SSCD21]
Источник (релизер): http://shop.silentseason.com/album/no-stars-without-darkness


[torrentc.info]_t_5371093.torrent
Торрент: Зарегистрирован ·  [ 2017-03-12 01:06 ] ·  de85efc2676464b911db2795b688924e45abfc5d

15 KB

Статус: проверено
Скачан: 0 раз
Размер: 687 MB
Оценка: 
(Голосов: 0)
Сказали спасибо: 0  Спасибо
Похожие темы
[Профиль]    [ЛС]
Показать сообщения:    
Ответить на тему

Текущее время: Сегодня 13:58

Часовой пояс: GMT + 7



Вы не можете начинать темы
Вы не можете отвечать на сообщения
Вы не можете редактировать свои сообщения
Вы не можете удалять свои сообщения
Вы не можете голосовать в опросах
Вы не можете прикреплять файлы к сообщениям
Вы можете скачивать файлы