(Electronic, IDM, Drum\'n\'Bass)[CD] Phylr - Discography (2CD Album)-1997-1999, FLAC (tracks+.cue), lossless

Ответить на тему
Статистика раздачи [Обновить пиров]
Размер:  577 MB   |    Зарегистрирован:  1 год 11 месяцев   |    Скачан:  0 раз

Полного источника не было: Никогда

 
   
 
 
 
Автор Сообщение

torrentc.info

Создавать темы 12-Мар-2017 01:06

[Цитировать]

PhylrДискография Жанр: Electronic
Год издания: 1997 – Present
Носитель: CD
Издатель (лейбл): Invisible
Страна: United States of America
Аудиокодек: FLAC (*.flac)
Тип рипа: tracks+.cue
Битрейт аудио: lossless
Продолжительность: 01:48:37
Источник (релизер): What.CD
Наличие сканов в содержимом раздачи: нет
-

1997 - Contra la puerta

Label: Invisible
Catalog#: INV 093
Продолжительность: 00:49:11
Трэклист:
1. "I Was Born..." (4:31)
2. "The Field" (3:39)
3. "In a Hole" (5:33)
4. "Home" (4:23)
5. "Chapter II" (4:01)
6. "Intervention" (4:24)
7. "Distance" (5:28)
8. "Circumference" (4:20)
9. "Terminal" (6:09)
10. "Thistle" (3:18)
11. "Away" (3:22)-

Лог создания рипа

Exact Audio Copy V1.0 beta 3 from 29. August 2011
EAC extraction logfile from 12. May 2015, 23:19
Phylr / Contra la puerta
Used drive : HL-DT-STDVDRAM GA10F Adapter: 0 ID: 1
Read mode : SecureUtilize accurate stream : YesDefeat audio cache : YesMake use of C2 pointers : No
Read offset correction : 667Overread into Lead-In and Lead-Out : NoFill up missing offset samples with silence : YesDelete leading and trailing silent blocks : NoNull samples used in CRC calculations : YesUsed interface : Native Win32 interface for Win NT & 2000Gap handling : Appended to previous track
Used output format : User Defined EncoderSelected bitrate : 1024 kBit/sQuality : HighAdd ID3 tag : NoCommand line compressor : C:\Program Files (x86)\FLAC\flac.exeAdditional command line options : -8 -V -T "ARTIST=%artist%" -T "TITLE=%title%" -T "ALBUM=%albumtitle%" -T "DATE=%year%" -T "TRACKNUMBER=%tracknr%" -T "GENRE=%genre%" -T "PERFORMER=%albuminterpret%" -T "COMPOSER=%composer%" %haslyrics%--tag-from-file=LYRICS="%lyricsfile%"%haslyrics% -T "ALBUMARTIST=%albumartist%" -T "DISCNUMBER=%cdnumber%" -T "TOTALDISCS=%totalcds%" -T "TOTALTRACKS=%numtracks%" -T "COMMENT=%comment%" %source% -o %dest%
TOC of the extracted CD
Track | Start | Length | Start sector | End sector --------------------------------------------------------- 1 | 0:00.00 | 4:31.05 | 0 | 20329 2 | 4:31.05 | 3:39.65 | 20330 | 36819 3 | 8:10.70 | 5:33.25 | 36820 | 61819 4 | 13:44.20 | 4:23.25 | 61820 | 81569 5 | 18:07.45 | 4:01.65 | 81570 | 99709 6 | 22:09.35 | 4:24.12 | 99710 | 119521 7 | 26:33.47 | 5:28.10 | 119522 | 144131 8 | 32:01.57 | 4:20.00 | 144132 | 163631 9 | 36:21.57 | 6:09.50 | 163632 | 191356 10 | 42:31.32 | 3:18.00 | 191357 | 206206 11 | 45:49.32 | 3:21.48 | 206207 | 221329
Track 1
Filename C:\what.cd\Phylr\Phylr - Contra la puerta (FLAC)\01 I Was Born....wav
Pre-gap length 0:00:02.00
Peak level 95.5 % Extraction speed 3.0 X Track quality 100.0 % Test CRC A7F52FC6 Copy CRC A7F52FC6 Accurately ripped (confidence 3) [705ABA31] (AR v2) Copy OK
Track 2
Filename C:\what.cd\Phylr\Phylr - Contra la puerta (FLAC)\02 The Field.wav
Peak level 93.3 % Extraction speed 3.2 X Track quality 100.0 % Test CRC E68F4551 Copy CRC E68F4551 Accurately ripped (confidence 3) [595A7281] (AR v2) Copy OK
Track 3
Filename C:\what.cd\Phylr\Phylr - Contra la puerta (FLAC)\03 In a Hole.wav
Peak level 93.3 % Extraction speed 3.2 X Track quality 99.9 % Test CRC AF7CD506 Copy CRC AF7CD506 Accurately ripped (confidence 3) [D9D8C76C] (AR v2) Copy OK
Track 4
Filename C:\what.cd\Phylr\Phylr - Contra la puerta (FLAC)\04 Home.wav
Peak level 93.3 % Extraction speed 3.9 X Track quality 100.0 % Test CRC 8593ED37 Copy CRC 8593ED37 Accurately ripped (confidence 3) [20B841C6] (AR v2) Copy OK
Track 5
Filename C:\what.cd\Phylr\Phylr - Contra la puerta (FLAC)\05 Chapter II.wav
Peak level 93.3 % Extraction speed 4.0 X Track quality 100.0 % Test CRC 775DA030 Copy CRC 775DA030 Accurately ripped (confidence 3) [89771C65] (AR v2) Copy OK
Track 6
Filename C:\what.cd\Phylr\Phylr - Contra la puerta (FLAC)\06 Intervention.wav
Peak level 93.3 % Extraction speed 4.3 X Track quality 100.0 % Test CRC 4C2E8DFE Copy CRC 4C2E8DFE Accurately ripped (confidence 3) [94885A74] (AR v2) Copy OK
Track 7
Filename C:\what.cd\Phylr\Phylr - Contra la puerta (FLAC)\07 Distance.wav
Peak level 93.3 % Extraction speed 4.7 X Track quality 100.0 % Test CRC F95C50CE Copy CRC F95C50CE Accurately ripped (confidence 3) [C0EB9EEB] (AR v2) Copy OK
Track 8
Filename C:\what.cd\Phylr\Phylr - Contra la puerta (FLAC)\08 Circumference.wav
Peak level 93.3 % Extraction speed 4.8 X Track quality 100.0 % Test CRC 904BB99D Copy CRC 904BB99D Accurately ripped (confidence 3) [6A587D2B] (AR v2) Copy OK
Track 9
Filename C:\what.cd\Phylr\Phylr - Contra la puerta (FLAC)\09 Terminal.wav
Peak level 93.3 % Extraction speed 5.2 X Track quality 100.0 % Test CRC 9E5256A7 Copy CRC 9E5256A7 Accurately ripped (confidence 3) [321C8499] (AR v2) Copy OK
Track 10
Filename C:\what.cd\Phylr\Phylr - Contra la puerta (FLAC)\10 Thistle.wav
Peak level 93.3 % Extraction speed 5.0 X Track quality 100.0 % Test CRC 29C09322 Copy CRC 29C09322 Accurately ripped (confidence 3) [EC8A4487] (AR v2) Copy OK
Track 11
Filename C:\what.cd\Phylr\Phylr - Contra la puerta (FLAC)\11 Away.wav
Peak level 93.3 % Extraction speed 5.1 X Track quality 100.0 % Test CRC E33A1914 Copy CRC E33A1914 Accurately ripped (confidence 3) [1537AB78] (AR v2) Copy OK
All tracks accurately ripped
No errors occurred
End of status report
---- CUETools DB Plugin V2.1.3
[CTDB TOCID: 3UTkcbjJEJhl7e7a4Q8AdWT.ryM-] found, Submit result: 3UTkcbjJEJhl7e7a4Q8AdWT.ryM- has been confirmed[6f77358c] (2/2) Accurately ripped
==== Log checksum 6BC0D060CF0A2D519BAABDF8E47060D87F10E3937A4F2AEB09E7B97C96574137 ====

Содержание индексной карты (.CUE)

REM GENRE ElectronicREM DATE 1997REM DISCID 960B870BREM COMMENT "ExactAudioCopy v1.0b3"PERFORMER "Phylr"TITLE "Contra la puerta"FILE "01 I Was Born....flac" WAVE TRACK 01 AUDIO TITLE "I Was Born..." PERFORMER "Phylr" INDEX 01 00:00:00FILE "02 The Field.flac" WAVE TRACK 02 AUDIO TITLE "The Field" PERFORMER "Phylr" INDEX 01 00:00:00FILE "03 In a Hole.flac" WAVE TRACK 03 AUDIO TITLE "In a Hole" PERFORMER "Phylr" INDEX 01 00:00:00FILE "04 Home.flac" WAVE TRACK 04 AUDIO TITLE "Home" PERFORMER "Phylr" INDEX 01 00:00:00FILE "05 Chapter II.flac" WAVE TRACK 05 AUDIO TITLE "Chapter II" PERFORMER "Phylr" INDEX 01 00:00:00FILE "06 Intervention.flac" WAVE TRACK 06 AUDIO TITLE "Intervention" PERFORMER "Phylr" INDEX 01 00:00:00FILE "07 Distance.flac" WAVE TRACK 07 AUDIO TITLE "Distance" PERFORMER "Phylr" INDEX 01 00:00:00FILE "08 Circumference.flac" WAVE TRACK 08 AUDIO TITLE "Circumference" PERFORMER "Phylr" INDEX 01 00:00:00FILE "09 Terminal.flac" WAVE TRACK 09 AUDIO TITLE "Terminal" PERFORMER "Phylr" INDEX 01 00:00:00FILE "10 Thistle.flac" WAVE TRACK 10 AUDIO TITLE "Thistle" PERFORMER "Phylr" INDEX 01 00:00:00FILE "11 Away.flac" WAVE TRACK 11 AUDIO TITLE "Away" PERFORMER "Phylr" INDEX 01 00:00:00

1999 - Half Life

Label: Invisible
Catalog#: INV 110
Продолжительность: 00:59:26
Трэклист:
1. "King" (3:15)
2. "Biscuit" (3:13)
3. "Turn and Smile" (4:51)
4. "Foxhole Prayers" (2:55)
5. "Sweet and Wasted" (3:21)
6. "Blowhole etc." (5:19)
7. "Everything Is Fine" (4:54)
8. "Gravy Detective" (5:05)
9. "Progain" (5:02)
10. "Superb Whiskers" (8:15)
11. "Far and Away" [Circuit Redux Remix] (7:09)
12. "Xsad" (3:08)
13. "Greener Pastures" (2:54)-

Лог создания рипа

Exact Audio Copy V1.0 beta 3 from 29. August 2011
EAC extraction logfile from 13. May 2015, 21:56
Phylr / Halflife
Used drive : HL-DT-STDVDRAM GA10F Adapter: 0 ID: 1
Read mode : SecureUtilize accurate stream : YesDefeat audio cache : YesMake use of C2 pointers : No
Read offset correction : 667Overread into Lead-In and Lead-Out : NoFill up missing offset samples with silence : YesDelete leading and trailing silent blocks : NoNull samples used in CRC calculations : YesUsed interface : Native Win32 interface for Win NT & 2000Gap handling : Appended to previous track
Used output format : User Defined EncoderSelected bitrate : 1024 kBit/sQuality : HighAdd ID3 tag : NoCommand line compressor : C:\Program Files (x86)\FLAC\flac.exeAdditional command line options : -8 -V -T "ARTIST=%artist%" -T "TITLE=%title%" -T "ALBUM=%albumtitle%" -T "DATE=%year%" -T "TRACKNUMBER=%tracknr%" -T "GENRE=%genre%" -T "PERFORMER=%albuminterpret%" -T "COMPOSER=%composer%" %haslyrics%--tag-from-file=LYRICS="%lyricsfile%"%haslyrics% -T "ALBUMARTIST=%albumartist%" -T "DISCNUMBER=%cdnumber%" -T "TOTALDISCS=%totalcds%" -T "TOTALTRACKS=%numtracks%" -T "COMMENT=%comment%" %source% -o %dest%
TOC of the extracted CD
Track | Start | Length | Start sector | End sector --------------------------------------------------------- 1 | 0:00.00 | 3:15.50 | 0 | 14674 2 | 3:15.50 | 3:13.70 | 14675 | 29219 3 | 6:29.45 | 4:51.00 | 29220 | 51044 4 | 11:20.45 | 2:55.00 | 51045 | 64169 5 | 14:15.45 | 3:21.22 | 64170 | 79266 6 | 17:36.67 | 5:19.34 | 79267 | 103225 7 | 22:56.26 | 4:54.51 | 103226 | 125326 8 | 27:51.02 | 5:05.21 | 125327 | 148222 9 | 32:56.23 | 5:02.35 | 148223 | 170907 10 | 37:58.58 | 8:15.72 | 170908 | 208104 11 | 46:14.55 | 7:09.33 | 208105 | 240312 12 | 53:24.13 | 3:08.38 | 240313 | 254450 13 | 56:32.51 | 2:53.49 | 254451 | 267474
Track 1
Filename C:\what.cd\Phylr\Phylr - Half Life (FLAC)\01 King.wav
Pre-gap length 0:00:02.00
Peak level 96.6 % Extraction speed 2.8 X Track quality 100.0 % Test CRC BB0CBDA0 Copy CRC BB0CBDA0 Accurately ripped (confidence 3) [8CD5DAB2] (AR v2) Copy OK
Track 2
Filename C:\what.cd\Phylr\Phylr - Half Life (FLAC)\02 Biscuit.wav
Pre-gap length 0:00:01.00
Peak level 96.6 % Extraction speed 3.0 X Track quality 100.0 % Test CRC 4437FAF2 Copy CRC 4437FAF2 Accurately ripped (confidence 3) [E1DA8F34] (AR v2) Copy OK
Track 3
Filename C:\what.cd\Phylr\Phylr - Half Life (FLAC)\03 Turn and Smile.wav
Peak level 96.6 % Extraction speed 3.4 X Track quality 100.0 % Test CRC 25BD8AD7 Copy CRC 25BD8AD7 Accurately ripped (confidence 3) [B4705D20] (AR v2) Copy OK
Track 4
Filename C:\what.cd\Phylr\Phylr - Half Life (FLAC)\04 Foxhole Prayers.wav
Peak level 96.6 % Extraction speed 3.4 X Track quality 100.0 % Test CRC 92CE4828 Copy CRC 92CE4828 Accurately ripped (confidence 3) [41058486] (AR v2) Copy OK
Track 5
Filename C:\what.cd\Phylr\Phylr - Half Life (FLAC)\05 Sweet and Wasted.wav
Pre-gap length 0:00:00.25
Peak level 27.0 % Extraction speed 3.7 X Track quality 100.0 % Test CRC E45928E2 Copy CRC E45928E2 Accurately ripped (confidence 3) [3B581CD4] (AR v2) Copy OK
Track 6
Filename C:\what.cd\Phylr\Phylr - Half Life (FLAC)\06 Blowhole etc..wav
Peak level 34.2 % Extraction speed 4.2 X Track quality 100.0 % Test CRC B41F8554 Copy CRC B41F8554 Accurately ripped (confidence 3) [ADE97543] (AR v2) Copy OK
Track 7
Filename C:\what.cd\Phylr\Phylr - Half Life (FLAC)\07 Everything Is Fine.wav
Peak level 96.6 % Extraction speed 4.3 X Track quality 100.0 % Test CRC B81899A8 Copy CRC B81899A8 Accurately ripped (confidence 3) [FA3E0355] (AR v2) Copy OK
Track 8
Filename C:\what.cd\Phylr\Phylr - Half Life (FLAC)\08 Gravy Detective.wav
Peak level 86.1 % Extraction speed 4.7 X Track quality 100.0 % Test CRC 07213BB9 Copy CRC 07213BB9 Accurately ripped (confidence 3) [99689EA4] (AR v2) Copy OK
Track 9
Filename C:\what.cd\Phylr\Phylr - Half Life (FLAC)\09 Progain.wav
Peak level 86.1 % Extraction speed 4.2 X Track quality 99.9 % Test CRC EC775BDD Copy CRC EC775BDD Accurately ripped (confidence 3) [7DD1F3FC] (AR v2) Copy OK
Track 10
Filename C:\what.cd\Phylr\Phylr - Half Life (FLAC)\10 Superb Whiskers.wav
Peak level 96.6 % Extraction speed 5.3 X Track quality 100.0 % Test CRC EE814171 Copy CRC EE814171 Accurately ripped (confidence 3) [BA5DEC1F] (AR v2) Copy OK
Track 11
Filename C:\what.cd\Phylr\Phylr - Half Life (FLAC)\11 Far and Away [Circuit Redux Remix].wav
Peak level 96.6 % Extraction speed 5.6 X Track quality 100.0 % Test CRC 80124ECE Copy CRC 80124ECE Accurately ripped (confidence 3) [95450765] (AR v2) Copy OK
Track 12
Filename C:\what.cd\Phylr\Phylr - Half Life (FLAC)\12 Xsad.wav
Peak level 43.1 % Extraction speed 5.2 X Track quality 100.0 % Test CRC 4A3C213C Copy CRC 4A3C213C Accurately ripped (confidence 3) [2C9885EE] (AR v2) Copy OK
Track 13
Filename C:\what.cd\Phylr\Phylr - Half Life (FLAC)\13 Greener Pastures.wav
Peak level 43.1 % Extraction speed 4.2 X Track quality 99.9 % Test CRC 9098A5B8 Copy CRC 9098A5B8 Accurately ripped (confidence 3) [96A66E6E] (AR v2) Copy OK
All tracks accurately ripped
No errors occurred
End of status report
---- CUETools DB Plugin V2.1.3
[CTDB TOCID: BaKDViKLpmuFZ8I_iPn1LLdshrs-] found, Submit result: BaKDViKLpmuFZ8I_iPn1LLdshrs- has been confirmed[acca8ad9] (7/7) Accurately ripped
==== Log checksum C2595D8D1B46DB697AD65B4CFA1AE5FF3E44A79D4B60C64C50146CC4C0DF5D96 ====

Содержание индексной карты (.CUE)

REM GENRE ElectronicREM DATE 1999REM DISCID CF0DEE0DREM COMMENT "ExactAudioCopy v1.0b3"PERFORMER "Phylr"TITLE "Halflife"FILE "01 King.flac" WAVE TRACK 01 AUDIO TITLE "King" PERFORMER "Phylr" INDEX 01 00:00:00 TRACK 02 AUDIO TITLE "Biscuit" PERFORMER "Phylr" INDEX 00 03:14:50FILE "02 Biscuit.flac" WAVE INDEX 01 00:00:00FILE "03 Turn and Smile.flac" WAVE TRACK 03 AUDIO TITLE "Turn and Smile" PERFORMER "Phylr" INDEX 01 00:00:00FILE "04 Foxhole Prayers.flac" WAVE TRACK 04 AUDIO TITLE "Foxhole Prayers" PERFORMER "Phylr" INDEX 01 00:00:00 TRACK 05 AUDIO TITLE "Sweet and Wasted" PERFORMER "Phylr" INDEX 00 02:54:50FILE "05 Sweet and Wasted.flac" WAVE INDEX 01 00:00:00FILE "06 Blowhole etc..flac" WAVE TRACK 06 AUDIO TITLE "Blowhole etc." PERFORMER "Phylr" INDEX 01 00:00:00FILE "07 Everything Is Fine.flac" WAVE TRACK 07 AUDIO TITLE "Everything Is Fine" PERFORMER "Phylr" INDEX 01 00:00:00FILE "08 Gravy Detective.flac" WAVE TRACK 08 AUDIO TITLE "Gravy Detective" PERFORMER "Phylr" INDEX 01 00:00:00FILE "09 Progain.flac" WAVE TRACK 09 AUDIO TITLE "Progain" PERFORMER "Phylr" INDEX 01 00:00:00FILE "10 Superb Whiskers.flac" WAVE TRACK 10 AUDIO TITLE "Superb Whiskers" PERFORMER "Phylr" INDEX 01 00:00:00FILE "11 Far and Away [Circuit Redux Remix].flac" WAVE TRACK 11 AUDIO TITLE "Far and Away [Circuit Redux Remix]" PERFORMER "Phylr" INDEX 01 00:00:00FILE "12 Xsad.flac" WAVE TRACK 12 AUDIO TITLE "Xsad" PERFORMER "Phylr" INDEX 01 00:00:00FILE "13 Greener Pastures.flac" WAVE TRACK 13 AUDIO TITLE "Greener Pastures" PERFORMER "Phylr" INDEX 01 00:00:00


[torrentc.info]_t_5368917.torrent
Торрент: Зарегистрирован ·  [ 2017-03-12 01:06 ] ·  0765081808e395ce84bd26c7a20513c3daa8a248

14 KB

Статус: проверено
Скачан: 0 раз
Размер: 577 MB
Оценка: 
(Голосов: 0)
Сказали спасибо: 0  Спасибо
Похожие темы
[Профиль]    [ЛС]
Показать сообщения:    
Ответить на тему

Текущее время: Сегодня 16:03

Часовой пояс: GMT + 7



Вы не можете начинать темы
Вы не можете отвечать на сообщения
Вы не можете редактировать свои сообщения
Вы не можете удалять свои сообщения
Вы не можете голосовать в опросах
Вы не можете прикреплять файлы к сообщениям
Вы можете скачивать файлы