Кубок Мира 2016-17. 8-й этап. Контиолахти (Финляндия). Мужчины. Спринт 10 км / Eurosport HD [10.03.2017, Биатлон, HDTV/1080i, TS/H.264, RU/EN]

Ответить на тему
Статистика раздачи [Обновить пиров]
Размер:  4.91 GB   |    Зарегистрирован:  1 год 11 месяцев   |    Скачан:  0 раз
Сидеров:  1  [  0 KB/s  ]   Подробная статистика скачивающих
 
   
 
 
 
Автор Сообщение

torrentc.info

Создавать темы 12-Мар-2017 01:06

[Цитировать]

Кубок Мира 2016-17. 8-й этап. Контиолахти (Финляндия)
Мужчины. Спринт 10 км Вид спорта: Биатлон
Комментарий: Профессиональный
Язык комментариев: Русский (Курдюков) / Английский-Описание: Кубок Мира 2016-17. 8-й этап. Контиолахти (Финляндия). Мужчины. Спринт 10 км.-Автор рипа: music it's my life
Качество: HDTV
Формат файла: TS
Видео кодек: AVC
Аудио кодек: MP2
Видео: MPEG4 Video (H264) 1920x1080 (16:9) 25fps 9838kbps
Аудио: MPEG Audio 48000Hz stereo 192kbps
Продолжительность">

Скриншоты Продолжительность

01:05:20

MediaInfo

GeneralID : 1 (0x1)Complete name : W:\раздачи\Кубок Мира 2016-17. 8-й этап. Контиолахти (Финляндия). Мужчины. Спринт 10 км. torrentc.tsFormat : MPEG-TSFile size : 4.91 GiBDuration : 1 h 5 minOverall bit rate mode : VariableOverall bit rate : 10.8 Mb/s
VideoID : 301 (0x12D)Menu ID : 26001 (0x6591)Format : AVCFormat/Info : Advanced Video CodecFormat profile : High@L4Format settings, CABAC : YesFormat settings, ReFrames : 4 framesCodec ID : 27Duration : 1 h 5 minBit rate : 9 838 kb/sWidth : 1 920 pixelsHeight : 1 080 pixelsDisplay aspect ratio : 16:9Frame rate : 25.000 FPSStandard : ComponentColor space : YUVChroma subsampling : 4:2:0Bit depth : 8 bitsScan type : InterlacedScan type, store method : Separated fieldsScan order : Top Field FirstBits/(Pixel*Frame) : 0.190Stream size : 4.49 GiB (91%)Color range : LimitedColor primaries : BT.709Transfer characteristics : BT.709Matrix coefficients : BT.709
Audio #1ID : 401 (0x191)Menu ID : 26001 (0x6591)Format : MPEG AudioFormat version : Version 1Format profile : Layer 2Codec ID : 3Duration : 1 h 5 minBit rate mode : ConstantBit rate : 192 kb/sChannel(s) : 2 channelsSampling rate : 48.0 kHzCompression mode : LossyDelay relative to video : -120 msStream size : 89.7 MiB (2%)Language : Russian
Audio #2ID : 402 (0x192)Menu ID : 26001 (0x6591)Format : MPEG AudioFormat version : Version 1Format profile : Layer 2Codec ID : 3Duration : 1 h 5 minBit rate mode : ConstantBit rate : 192 kb/sChannel(s) : 2 channelsSampling rate : 48.0 kHzCompression mode : LossyDelay relative to video : -120 msStream size : 89.7 MiB (2%)Language : English
Стартовый лист | Результаты


[torrentc.info]_t_5370440.torrent
Торрент: Зарегистрирован ·  [ 2017-03-12 01:06 ] ·  9ef8fcfbc69812d9bdcd4b72083df3293c029490

25 KB

Статус: проверено
Скачан: 0 раз
Размер: 4.91 GB
Оценка: 
(Голосов: 0)
Сказали спасибо: 0  Спасибо
Похожие темы
[Профиль]    [ЛС]
Показать сообщения:    
Ответить на тему

Текущее время: Сегодня 13:54

Часовой пояс: GMT + 7



Вы не можете начинать темы
Вы не можете отвечать на сообщения
Вы не можете редактировать свои сообщения
Вы не можете удалять свои сообщения
Вы не можете голосовать в опросах
Вы не можете прикреплять файлы к сообщениям
Вы можете скачивать файлы