Биатлон с Дмитрием Губерниевым. Сезон 2016/2017. Выпуск 17 [10.03.2017, Биатлон, HDTV, 1080i, H.264, RU]

Ответить на тему
Статистика раздачи [Обновить пиров]
Размер:  1.26 GB   |    Зарегистрирован:  1 год 11 месяцев   |    Скачан:  0 раз

Полного источника не было: Никогда

 
   
 
 
 
Автор Сообщение

torrentc.info

Создавать темы 12-Мар-2017 01:06

[Цитировать]

Биатлон с Дмитрием Губерниевым
Сезон 2016/2017. Выпуск 17 Дата эфира: 10.03.2017
Комментарий: Профессиональный
Язык комментариев: Русский
Ведущий: Дмитрий Губерниев
Продолжительность: 00:23:39-Описание: Для биатлонистов зима - это время мобилизации сил и полной концентрации. Для зрителей - начало интереснейших соревнований и сильных переживаний за сборную. В программе все, о чем хотят знать болельщики: новости и комментарии, интервью с лидерами соревнований и рассказы о российской команде.
В этом выпуске:
- Подводим предварительные итоги сезона вместе с главой СБР Александром Кравцовым;
- Как переживают тяжелую горечь поражений биатлонисты?
- Что чувствуют биатлонисты во время гонки? Покажем наглядно - на графиках;
- Мартен Фуркад уже стал обладателем большого хрустального глобуса досрочно... Это уже шестой глобус подряд;
- Следят ли биатлонисты за футболом? Как пережили французы поражение ПСЖ от Барсы в Лиге Чемпионов? Братья Бё комментируют футбольный матч российской премьер лиги Краснодар - Спартак.
и другое
-Автор рипа: music it's my life
Качество: HDTV
Формат файла: TS
Видео кодек: AVC
Аудио кодек: MP2
Видео: MPEG4 Video (H264) 1920x1080 (16:9) 25.00fps 6842kbps
Аудио: MPEG Audio 48000Hz stereo 192kbps
MediaInfo">

Скриншоты (не обновляются) MediaInfo


GeneralID : 1 (0x1)Complete name : W:\раздачи\Би с Гу 2016-2017. Выпуск 17. torrentc.tsFormat : MPEG-TSFile size : 1.26 GiBDuration : 23 min 39 sOverall bit rate mode : VariableOverall bit rate : 7 605 kb/s
VideoID : 204 (0xCC)Menu ID : 2204 (0x89C)Format : AVCFormat/Info : Advanced Video CodecFormat profile : High@L4Format settings, CABAC : YesFormat settings, ReFrames : 4 framesCodec ID : 27Duration : 23 min 39 sBit rate : 6 842 kb/sWidth : 1 920 pixelsHeight : 1 080 pixelsDisplay aspect ratio : 16:9Frame rate : 25.000 FPSStandard : ComponentColor space : YUVChroma subsampling : 4:2:0Bit depth : 8 bitsScan type : InterlacedScan type, store method : Separated fieldsScan order : Top Field FirstBits/(Pixel*Frame) : 0.132Stream size : 1.13 GiB (90%)Color range : LimitedColor primaries : BT.709Transfer characteristics : BT.709Matrix coefficients : BT.709
Audio #1ID : 304 (0x130)Menu ID : 2204 (0x89C)Format : MPEG AudioFormat version : Version 1Format profile : Layer 2Codec ID : 3Duration : 23 min 39 sBit rate mode : ConstantBit rate : 192 kb/sChannel(s) : 2 channelsSampling rate : 48.0 kHzCompression mode : LossyStream size : 32.5 MiB (3%)Language : Russian
Audio #2ID : 305 (0x131)Menu ID : 2204 (0x89C)Format : MPEG AudioFormat version : Version 1Format profile : Layer 2Codec ID : 3Duration : 23 min 39 sBit rate mode : ConstantBit rate : 192 kb/sChannel(s) : 2 channelsSampling rate : 48.0 kHzCompression mode : LossyStream size : 32.5 MiB (3%)


[torrentc.info]_t_5370451.torrent
Торрент: Зарегистрирован ·  [ 2017-03-12 01:06 ] ·  f7c2ae161f64a0adc713e9e050bd9a4e8c7c6dca

13 KB

Статус: проверено
Скачан: 0 раз
Размер: 1.26 GB
Оценка: 
(Голосов: 0)
Сказали спасибо: 0  Спасибо
Похожие темы
[Профиль]    [ЛС]
Показать сообщения:    
Ответить на тему

Текущее время: Сегодня 15:57

Часовой пояс: GMT + 7



Вы не можете начинать темы
Вы не можете отвечать на сообщения
Вы не можете редактировать свои сообщения
Вы не можете удалять свои сообщения
Вы не можете голосовать в опросах
Вы не можете прикреплять файлы к сообщениям
Вы можете скачивать файлы