Кубок Мира 2016-17. 8-й этап. Контиолахти (Финляндия). Мужчины. Спринт 10 км / Матч ТВ [10.03.2017, Биатлон, DVB/576i, TS/H.264, RU]

Ответить на тему
Статистика раздачи [Обновить пиров]
Размер:  1.65 GB   |    Зарегистрирован:  2 года   |    Скачан:  0 раз
Сидеров:  3  [  0 KB/s  ]   Личеров:  3  [  0 KB/s  ]   Подробная статистика скачивающих
 
   
 
 
 
Автор Сообщение

Мых

Создавать темы 12-Мар-2017 01:06

[Цитировать]

Кубок Мира 2016-17. 8-й этап. Контиолахти (Финляндия)
Мужчины. Спринт 10 км Вид спорта: Биатлон
Комментарий: Профессиональный
Язык комментариев: Русский (Гу)-Описание: Кубок Мира 2016-17. 8-й этап. Контиолахти (Финляндия). Мужчины. Спринт 10 км.-Автор рипа: music it's my life
Качество: DVB
Формат файла: TS
Видео кодек: AVC
Аудио кодек: MP2
Видео: MPEG4 Video (H264) 720x576 (16:9) 25fps 2711kbps
Аудио: MPEG Audio 48000Hz stereo 192kbps
Продолжительность">

Скриншоты Продолжительность

01:17:25

MediaInfo

GeneralID : 1 (0x1)Complete name : W:\раздачи\Кубок Мира 2016-17. 8-й этап. Контиолахти (Финляндия). Мужчины. Спринт 10 км. Матч ТВ. torrentc.tsFormat : MPEG-TSFile size : 1.65 GiBDuration : 1 h 17 minOverall bit rate mode : VariableOverall bit rate : 3 056 kb/s
VideoID : 1031 (0x407)Menu ID : 1030 (0x406)Format : AVCFormat/Info : Advanced Video CodecFormat profile : Main@L3Format settings, CABAC : YesFormat settings, ReFrames : 3 framesFormat settings, GOP : M=4, N=28Codec ID : 27Duration : 1 h 17 minBit rate : 2 711 kb/sWidth : 720 pixelsHeight : 576 pixelsDisplay aspect ratio : 16:9Frame rate : 25.000 FPSStandard : ComponentColor space : YUVChroma subsampling : 4:2:0Bit depth : 8 bitsScan type : InterlacedScan type, store method : Separated fieldsScan order : Top Field FirstBits/(Pixel*Frame) : 0.261Stream size : 1.47 GiB (89%)Color range : LimitedColor primaries : BT.601 PALTransfer characteristics : BT.470 System B, BT.470 System GMatrix coefficients : BT.601
AudioID : 1032 (0x408)Menu ID : 1030 (0x406)Format : MPEG AudioFormat version : Version 1Format profile : Layer 2Codec ID : 3Duration : 1 h 17 minBit rate mode : ConstantBit rate : 192 kb/sChannel(s) : 2 channelsSampling rate : 48.0 kHzCompression mode : LossyStream size : 106 MiB (6%)Language : English
OtherID : 1033 (0x409)-100Menu ID : 1030 (0x406)Format : TeletextLanguage : Russian
Стартовый лист | Результаты


[torrentc.info]_t_5370460.torrent
Торрент: Зарегистрирован ·  [ 2017-03-12 01:06 ] ·  180107344ef1a82169c7e9fedac4e07cc6b8d37b

17 KB

Статус: проверено
Скачан: 0 раз
Размер: 1.65 GB
Оценка: 
(Голосов: 0)
Сказали спасибо: 0  Спасибо
Похожие темы
[Профиль]    [ЛС]
Показать сообщения:    
Ответить на тему

Текущее время: Сегодня 05:42

Часовой пояс: GMT + 7



Вы не можете начинать темы
Вы не можете отвечать на сообщения
Вы не можете редактировать свои сообщения
Вы не можете удалять свои сообщения
Вы не можете голосовать в опросах
Вы не можете прикреплять файлы к сообщениям
Вы можете скачивать файлы