Кубок Мира 2016-17. 8-й этап. Контиолахти (Финляндия). Мужчины. Гонка преследования 12,5 км / Eurosport HD [11.03.2017, Биатлон, HDTV/1080i, TS/H.264, RU/EN]

Ответить на тему
Статистика раздачи [Обновить пиров]
Размер:  2.77 GB   |    Зарегистрирован:  2 года   |    Скачан:  0 раз

Полного источника не было: Никогда

 
   
 
 
 
Автор Сообщение

Мых

Создавать темы 12-Мар-2017 01:06

[Цитировать]

Кубок Мира 2016-17. 8-й этап. Контиолахти (Финляндия)
Мужчины. Гонка преследования 12,5 км Вид спорта: Биатлон
Комментарий: Профессиональный
Язык комментариев: Русский (Курдюков) / Английский-Описание: Кубок Мира 2016-17. 8-й этап. Контиолахти (Финляндия). Мужчины. Гонка преследования 12,5 км.-Автор рипа: music it's my life
Качество: HDTV
Формат файла: TS
Видео кодек: AVC
Аудио кодек: MP2
Видео: MPEG4 Video (H264) 1920x1080 (16:9) 25fps 10100kbps
Аудио: MPEG Audio 48000Hz stereo 192kbps
Продолжительность">

Скриншоты Продолжительность

00:35:43

MediaInfo

GeneralID : 1 (0x1)Complete name : W:\раздачи\Кубок Мира 2016-17. 8-й этап. Контиолахти (Финляндия). Мужчины. Гонка преследования 12,5 км. Eurosport HD. torrentc.tsFormat : MPEG-TSFile size : 2.77 GiBDuration : 35 min 43 sOverall bit rate mode : VariableOverall bit rate : 11.1 Mb/s
VideoID : 301 (0x12D)Menu ID : 26001 (0x6591)Format : AVCFormat/Info : Advanced Video CodecFormat profile : High@L4Format settings, CABAC : YesFormat settings, ReFrames : 4 framesCodec ID : 27Duration : 35 min 43 sBit rate : 10.1 Mb/sWidth : 1 920 pixelsHeight : 1 080 pixelsDisplay aspect ratio : 16:9Frame rate : 25.000 FPSStandard : ComponentColor space : YUVChroma subsampling : 4:2:0Bit depth : 8 bitsScan type : InterlacedScan type, store method : Separated fieldsScan order : Top Field FirstBits/(Pixel*Frame) : 0.196Stream size : 2.53 GiB (92%)Color range : LimitedColor primaries : BT.709Transfer characteristics : BT.709Matrix coefficients : BT.709
Audio #1ID : 401 (0x191)Menu ID : 26001 (0x6591)Format : MPEG AudioFormat version : Version 1Format profile : Layer 2Codec ID : 3Duration : 35 min 43 sBit rate mode : ConstantBit rate : 192 kb/sChannel(s) : 2 channelsSampling rate : 48.0 kHzCompression mode : LossyDelay relative to video : -40 msStream size : 49.1 MiB (2%)Language : Russian
Audio #2ID : 402 (0x192)Menu ID : 26001 (0x6591)Format : MPEG AudioFormat version : Version 1Format profile : Layer 2Codec ID : 3Duration : 35 min 43 sBit rate mode : ConstantBit rate : 192 kb/sChannel(s) : 2 channelsSampling rate : 48.0 kHzCompression mode : LossyDelay relative to video : -40 msStream size : 49.1 MiB (2%)Language : English
Стартовый лист | Результаты


[torrentc.info]_t_5371078.torrent
Торрент: Зарегистрирован ·  [ 2017-03-12 01:06 ] ·  bea5a9f038c9309ae4250a2855fdd0e300aa7349

14 KB

Статус: проверено
Скачан: 0 раз
Размер: 2.77 GB
Оценка: 
(Голосов: 0)
Сказали спасибо: 0  Спасибо
Похожие темы
[Профиль]    [ЛС]
Показать сообщения:    
Ответить на тему

Текущее время: Сегодня 05:45

Часовой пояс: GMT + 7



Вы не можете начинать темы
Вы не можете отвечать на сообщения
Вы не можете редактировать свои сообщения
Вы не можете удалять свои сообщения
Вы не можете голосовать в опросах
Вы не можете прикреплять файлы к сообщениям
Вы можете скачивать файлы