История сборной СССР на чемпионатах Европы по футболу 1960-1992 гг. [2006, Футбол, DVDRip]

Ответить на тему
Статистика раздачи [Обновить пиров]
Размер:  1.02 GB   |    Зарегистрирован:  1 год 11 месяцев   |    Скачан:  0 раз

Полного источника не было: Никогда

 
   
 
 
 
Автор Сообщение

torrentc.info

Создавать темы 11-Мар-2017 23:55

[Цитировать]

История сборной СССР на чемпионатах Европы по футболу
Вид спорта: Футбол
Участники: Футболисты различных сборных
Дата/Год выхода: 2006
Продолжительность: 1:02:08
Комментарий: Русский, профессиональный (одноголосый)
Описание: Журнал TotalFootball представляет историю сборной СССР по футболу на Чемпионатах Европы начиная с триумфального 1960-го и заканчивая невнятным 1992-м.
Источник: собственный DVD-5
Автор рипа/записи: Vicman
Качество: DVDRip
Формат файла: AVI
Видео: Xvid 73, 688x528 (4:3), 2120 Kbps, 25 fps, 0.233 bit\pixel
Аудио: AC3, 224 Кбит/с, 48 kHz, 2 ch (оригинал)

Mediainfo

GeneralComplete name : D:\Видео\Для обработки\История сборной СССР по футболу на ЧЕ.aviFormat : AVIFormat/Info : Audio Video InterleaveFile size : 1.02 GiBDuration : 1h 2mnOverall bit rate : 2 352 KbpsWriting application : VirtualDubMod 1.5.10.3 | www.virtualdub-fr.org || (build 2550/release)Writing library : VirtualDubMod build 2550/release
VideoID : 0Format : MPEG-4 VisualFormat profile : Advanced Simple@L5Format settings, BVOP : 1Format settings, QPel : NoFormat settings, GMC : No warppointsFormat settings, Matrix : Default (MPEG)Codec ID : XVIDCodec ID/Hint : XviDDuration : 1h 2mnBit rate : 2 118 KbpsWidth : 688 pixelsHeight : 528 pixelsDisplay aspect ratio : 4:3Frame rate : 25.000 fpsColor space : YUVChroma subsampling : 4:2:0Bit depth : 8 bitsScan type : ProgressiveCompression mode : LossyBits/(Pixel*Frame) : 0.233Stream size : 941 MiB (90%)Writing library : XviD 73
AudioID : 1Format : AC-3Format/Info : Audio Coding 3Mode extension : CM (complete main)Format settings, Endianness : BigCodec ID : 2000Duration : 1h 2mnBit rate mode : ConstantBit rate : 224 KbpsChannel(s) : 2 channelsChannel positions : Front: L RSampling rate : 48.0 KHzFrame rate : 31.250 fps (1536 spf)Compression mode : LossyStream size : 99.6 MiB (10%)Alignment : Split accross interleavesInterleave, duration : 40 ms (1.00 video frame)Interleave, preload duration : 500 ms

Источник: torrentc с раздачей uncle-vova

[url=viewtopic.php?t=2189593]http://torrentc/forum/viewtopic.php?t=2189593[/url]

Скриншоты



[torrentc.info]_t_5286168.torrent
Торрент: Зарегистрирован ·  [ 2017-03-11 23:54 ] ·  55614dfda08e0a50ad9953761b9a72c5345d06e3

11 KB

Статус: проверено
Скачан: 0 раз
Размер: 1.02 GB
Оценка: 
(Голосов: 0)
Сказали спасибо: 0  Спасибо
Похожие темы
[Профиль]    [ЛС]
Показать сообщения:    
Ответить на тему

Текущее время: Сегодня 09:39

Часовой пояс: GMT + 7



Вы не можете начинать темы
Вы не можете отвечать на сообщения
Вы не можете редактировать свои сообщения
Вы не можете удалять свои сообщения
Вы не можете голосовать в опросах
Вы не можете прикреплять файлы к сообщениям
Вы можете скачивать файлы