Королева воров / The Maverick Queen / La horde sauvage (Джозеф Кэйн / Joseph Kane) [1956, США, вестерн, приключения, DVDRip] VO (Еrogg)

Ответить на тему
Статистика раздачи [Обновить пиров]
Размер:  1.36 GB   |    Зарегистрирован:  1 год 11 месяцев   |    Скачан:  0 раз

Полного источника не было: Никогда

 
   
 
 
 
Автор Сообщение

torrentc.info

Создавать темы 11-Мар-2017 23:55

[Цитировать]

Королева воров / The Maverick Queen / La horde sauvage
Страна: США
Жанр: вестерн, приключения
Год выхода: 1956
Продолжительность: 01:26:12
Перевод: Одноголосый закадровый Еrogg
Cубтитры: нет
Режиссер: Джозеф Кэйн / Joseph Kane
В ролях: Барбара Стэнвик, Барри Салливан, Мэри Мерфи, Скотт Брэди, Уоллас Форд, Ховард Петри
Описание: Кит Бенион выросла в Вирджинии, а после Гражданской войны уехала в Вайоминг, где получила прозвище «Королева воров» из-за того, что ставила свое клеймо на весь угнанный в округе скот, в итоге сколотила состояние, открыла салун и скотоводческую компанию в городке Рок-Спрингс. Однако порвать с прошлым для нее оказалось не так просто. Чтобы заработать еще больше денег, она присоединяется к Дикой банде Буча Кэссиди, которая безнаказанно занимается грабежами и разбоями от Канады до мексиканской границы. Однажды в ее салуне появляется человек, который называет себя племянником знаменитых братьев Янгеров, досрочно освободившимся из тюрьмы в Стиллуотере, и приехавшим в Вайоминг, чтобы войти в Дикую банду. Кит даже не подозревает насколько этот человек изменит ее судьбу. В то же время за Дикой бандой начинают охоту пинкертоны…
Сэмпл: https://yadi.sk/i/Bq54-O2L3FWrpw
Качество видео: DVDRip [url=viewtopic.php?t=5370379](Источник: torrentc - DVD Video)[/url]
Формат файла: AVI
Видео: XviD 73, 704x400, (16:9), 25,000 fps, 2061 Кбит/с, 0.29 bit/pixel
Аудио: Русский (АС3, 2 ch (Front: L R), 48,0 KHz, 192 Kbps)

MediaInfo

Общее
Полное имя : F:\Видеофильмы\В и д е о\Королева воров (вестерн приключения 1956 год).avi
Формат файла : AVI
Формат файла/Информация : Audio Video Interleave
Размер файла : 1,36 Гбайт
Продолжительность : 1 ч. 26 м.
Общий поток : 2263 Кбит/сек
Программа кодирования : VirtualDubMod 1.5.10.3 | www.virtualdub-fr.org || (build 2550/release)
Библиотека кодирования : VirtualDubMod build 2550/release
Видео
Идентификатор : 0
Формат файла : MPEG-4 Visual
Профиль формата : Advanced Simple@L5
Параметр BVOP формата : 2
Параметр QPel формата : Нет
Параметр GMC формата : Без точки перехода
Параметр матрицы формата : Выборочная
Идентификатор кодека : XVID
Идентификатор кодека/Подсказка : XviD
Продолжительность : 1 ч. 26 м.
Битрейт : 2061 Кбит/сек
Ширина : 704 пикселя
Высота : 400 пикселей
Соотношение сторон : 16:9
Частота кадров : 25,000 кадров/сек
Цветовое пространство : YUV
Субдискретизация насыщенности : 4:2:0
Битовая глубина : 8 бит
Тип развёртки : Прогрессивная
Метод сжатия : С потерями
Бит/(Пиксели*Кадры) : 0.293
Размер потока : 1,24 Гбайт (91%)
Библиотека кодирования : XviD 73
Аудио
Идентификатор : 1
Формат файла : AC-3
Формат файла/Информация : Audio Coding 3
Расширение режима : CM (complete main)
Параметр Endianness формата : Big
Идентификатор кодека : 2000
Продолжительность : 1 ч. 26 м.
Вид битрейта : Постоянный
Битрейт : 192 Кбит/сек
Каналы : 2 канала
Расположение каналов : Front: L R
Частота : 48,0 КГц
Частота кадров : 31,250 кадров/сек (1536 spf)
Метод сжатия : С потерями
Размер потока : 118 Мбайт (8%)
Выравнивание : Разделение по промежуткам
Продолжительность промежутка : 40 мс. (1,00 видеокадр)
Время предзагрузки промежутка : 500 мс.

Скриншот c названием фильма

Скриншоты



[torrentc.info]_t_5370863.torrent
Торрент: Зарегистрирован ·  [ 2017-03-11 23:54 ] ·  a6d2dc6da65859986c15801566f916b65012005f

14 KB

Статус: проверено
Скачан: 0 раз
Размер: 1.36 GB
Оценка: 
(Голосов: 0)
Сказали спасибо: 0  Спасибо
Похожие темы
[Профиль]    [ЛС]
Показать сообщения:    
Ответить на тему

Текущее время: Сегодня 10:24

Часовой пояс: GMT + 7



Вы не можете начинать темы
Вы не можете отвечать на сообщения
Вы не можете редактировать свои сообщения
Вы не можете удалять свои сообщения
Вы не можете голосовать в опросах
Вы не можете прикреплять файлы к сообщениям
Вы можете скачивать файлы