Кубок Мира 2016-17. 7-й этап. Пхёнчхан (Корея). Мужчины. Спринт 10 км / Матч ТВ [03.03.2017, Биатлон, SATRip/400p, AVI/XviD, RU]

Ответить на тему
Статистика раздачи [Обновить пиров]
Размер:  950 MB   |    Зарегистрирован:  2 года   |    Скачан:  0 раз

Полного источника не было: Никогда

 
   
 
 
 
Автор Сообщение

Мых

Создавать темы 11-Мар-2017 23:54

[Цитировать]

Кубок Мира 2016-17. 7-й этап. Пхёнчхан (Корея)
Мужчины. Спринт 10 км Вид спорта: Биатлон
Комментарий: Профессиональный
Язык комментариев: Русский (Губерниев)-Описание: Кубок Мира 2016-17. 7-й этап. Пхёнчхан (Корея). Мужчины. Спринт 10 км.-Автор рипа: music it's my life
Качество: SATRip
Формат файла: AVI
Видео кодек: XviD
Аудио кодек: MP3
Видео: MPEG4 Visual (H263) 704x400 (16:9) 25fps 1800kbps
Аудио: MP3 48000Hz stereo 128kbps
Продолжительность">

Скриншоты Продолжительность

01:08:25

MediaInfo

GeneralComplete name : W:\раздачи\Кубок Мира 2016-17. 7-й этап. Пхёнчхан (Корея). Мужчины. Спринт 10 км. torrentc.aviFormat : AVIFormat/Info : Audio Video InterleaveFile size : 950 MiBDuration : 1 h 8 minOverall bit rate : 1 941 kb/sWriting application : Lavf57.41.100
VideoID : 0Format : MPEG-4 VisualFormat profile : Advanced Simple@L5Format settings, BVOP : 1Format settings, QPel : NoFormat settings, GMC : No warppointsFormat settings, Matrix : Default (H.263)Codec ID : XVIDCodec ID/Hint : XviDDuration : 1 h 8 minBit rate : 1 800 kb/sWidth : 704 pixelsHeight : 400 pixelsDisplay aspect ratio : 16:9Frame rate : 25.000 FPSColor space : YUVChroma subsampling : 4:2:0Bit depth : 8 bitsScan type : ProgressiveCompression mode : LossyBits/(Pixel*Frame) : 0.256Stream size : 881 MiB (93%)Writing library : XviD 67
AudioID : 1Format : MPEG AudioFormat version : Version 1Format profile : Layer 3Mode : Joint stereoMode extension : MS StereoCodec ID : 55Codec ID/Hint : MP3Duration : 1 h 8 minBit rate mode : ConstantBit rate : 128 kb/sChannel(s) : 2 channelsSampling rate : 48.0 kHzCompression mode : LossyStream size : 62.6 MiB (7%)Alignment : Aligned on interleavesInterleave, duration : 24 ms (0.60 video frame)Writing library : LAME3.99.5
Стартовый лист | Результаты


[torrentc.info]_t_5366636.torrent
Торрент: Зарегистрирован ·  [ 2017-03-11 23:54 ] ·  b20aa2b1ba314ae42a6c1644f4fe543fd025b161

19 KB

Статус: проверено
Скачан: 0 раз
Размер: 950 MB
Оценка: 
(Голосов: 0)
Сказали спасибо: 0  Спасибо
Похожие темы
[Профиль]    [ЛС]
Показать сообщения:    
Ответить на тему

Текущее время: Сегодня 05:47

Часовой пояс: GMT + 7



Вы не можете начинать темы
Вы не можете отвечать на сообщения
Вы не можете редактировать свои сообщения
Вы не можете удалять свои сообщения
Вы не можете голосовать в опросах
Вы не можете прикреплять файлы к сообщениям
Вы можете скачивать файлы