Кубок Мира 2016-17. 7-й этап. Пхёнчхан (Корея). Женщины. Гонка преследования 10 км / Матч ТВ [04.03.2017, Биатлон, DVB/576i, TS/H.264, RU]

Ответить на тему
Статистика раздачи [Обновить пиров]
Размер:  974 MB   |    Зарегистрирован:  2 года   |    Скачан:  0 раз
Сидеров:  4  [  0 KB/s  ]   Подробная статистика скачивающих
 
   
 
 
 
Автор Сообщение

Мых

Создавать темы 11-Мар-2017 23:54

[Цитировать]

Кубок Мира 2016-17. 7-й этап. Пхёнчхан (Корея)
Женщины. Гонка преследования 10 км Вид спорта: Биатлон
Комментарий: Профессиональный
Язык комментариев: Русский (Губерниев)-Описание: Кубок Мира 2016-17. 7-й этап. Пхёнчхан (Корея). Женщины. Гонка преследования 10 км.-Автор рипа: music it's my life
Качество: DVB
Формат файла: TS
Видео кодек: AVC
Аудио кодек: MP2
Видео: MPEG4 Video (H264) 720x576 (16:9) 25fps 2709kbps
Аудио: MPEG Audio 48000Hz stereo 192kbps
Продолжительность">

Скриншоты Продолжительность

00:44:34

MediaInfo

GeneralID : 1 (0x1)Complete name : W:\раздачи\Кубок Мира 2016-17. 7-й этап. Пхёнчхан (Корея). Женщины. Гонка преследования 10 км. torrentc.tsFormat : MPEG-TSFile size : 974 MiBDuration : 44 min 34 sOverall bit rate mode : VariableOverall bit rate : 3 054 kb/s
VideoID : 1031 (0x407)Menu ID : 1030 (0x406)Format : AVCFormat/Info : Advanced Video CodecFormat profile : Main@L3Format settings, CABAC : YesFormat settings, ReFrames : 3 framesFormat settings, GOP : M=4, N=28Codec ID : 27Duration : 44 min 34 sBit rate : 2 709 kb/sWidth : 720 pixelsHeight : 576 pixelsDisplay aspect ratio : 16:9Frame rate : 25.000 FPSStandard : ComponentColor space : YUVChroma subsampling : 4:2:0Bit depth : 8 bitsScan type : InterlacedScan type, store method : Separated fieldsScan order : Top Field FirstBits/(Pixel*Frame) : 0.261Stream size : 864 MiB (89%)Color range : LimitedColor primaries : BT.601 PALTransfer characteristics : BT.470 System B, BT.470 System GMatrix coefficients : BT.601
AudioID : 1032 (0x408)Menu ID : 1030 (0x406)Format : MPEG AudioFormat version : Version 1Format profile : Layer 2Codec ID : 3Duration : 44 min 34 sBit rate mode : ConstantBit rate : 192 kb/sChannel(s) : 2 channelsSampling rate : 48.0 kHzCompression mode : LossyDelay relative to video : -120 msStream size : 61.2 MiB (6%)Language : English
OtherID : 1033 (0x409)-100Menu ID : 1030 (0x406)Format : TeletextLanguage : Russian
Стартовый лист | Результаты
-
Сообщения из этой темы [3 шт.] были выделены в отдельную тему Crowntes [id: 41890708] (0)
Злобный Санчез


[torrentc.info]_t_5367003.torrent
Торрент: Зарегистрирован ·  [ 2017-03-11 23:54 ] ·  a9469e095480bad4610f4d1eeb9db504354511cf

20 KB

Статус: проверено
Скачан: 0 раз
Размер: 974 MB
Оценка: 
(Голосов: 0)
Сказали спасибо: 0  Спасибо
Похожие темы
[Профиль]    [ЛС]
Показать сообщения:    
Ответить на тему

Текущее время: Сегодня 05:44

Часовой пояс: GMT + 7



Вы не можете начинать темы
Вы не можете отвечать на сообщения
Вы не можете редактировать свои сообщения
Вы не можете удалять свои сообщения
Вы не можете голосовать в опросах
Вы не можете прикреплять файлы к сообщениям
Вы можете скачивать файлы