Кубок Мира 2016-17. 7-й этап. Пхёнчхан (Корея). Мужчины. Гонка преследования 12,5 км / Матч ТВ [04.03.2017, Биатлон, DVB/576i, TS/H.264, RU]

Ответить на тему
Статистика раздачи [Обновить пиров]
Размер:  1.1 GB   |    Зарегистрирован:  1 год 11 месяцев   |    Скачан:  0 раз

Полного источника не было: Никогда

 
   
 
 
 
Автор Сообщение

torrentc.info

Создавать темы 11-Мар-2017 23:54

[Цитировать]

Кубок Мира 2016-17. 7-й этап. Пхёнчхан (Корея)
Мужчины. Гонка преследования 12,5 км Вид спорта: Биатлон
Комментарий: Профессиональный
Язык комментариев: Русский (Губерниев)-Описание: Кубок Мира 2016-17. 7-й этап. Пхёнчхан (Корея). Мужчины. Гонка преследования 12,5 км.-Автор рипа: music it's my life
Качество: DVB
Формат файла: TS
Видео кодек: AVC
Аудио кодек: MP2
Видео: MPEG4 Video (H264) 720x576 (16:9) 25fps 2710kbps
Аудио: MPEG Audio 48000Hz stereo 192kbps
Продолжительность">

Скриншоты Продолжительность

00:51:25

MediaInfo

GeneralID : 1 (0x1)Complete name : F:\Torrent\Биатлон. Сезон 2016-2017\Кубок Мира 2016-17. 7-й этап. Пхёнчхан (Корея). Мужчины. Гонка преследования 12,5 км. torrentc.tsFormat : MPEG-TSFile size : 1.10 GiBDuration : 51 min 25 sOverall bit rate mode : VariableOverall bit rate : 3 055 kb/s
VideoID : 1031 (0x407)Menu ID : 1030 (0x406)Format : AVCFormat/Info : Advanced Video CodecFormat profile : Main@L3Format settings, CABAC : YesFormat settings, ReFrames : 3 framesFormat settings, GOP : M=4, N=28Codec ID : 27Duration : 51 min 25 sBit rate : 2 710 kb/sWidth : 720 pixelsHeight : 576 pixelsDisplay aspect ratio : 16:9Frame rate : 25.000 FPSStandard : ComponentColor space : YUVChroma subsampling : 4:2:0Bit depth : 8 bitsScan type : InterlacedScan type, store method : Separated fieldsScan order : Top Field FirstBits/(Pixel*Frame) : 0.261Stream size : 997 MiB (89%)Color range : LimitedColor primaries : BT.601 PALTransfer characteristics : BT.470 System B, BT.470 System GMatrix coefficients : BT.601
AudioID : 1032 (0x408)Menu ID : 1030 (0x406)Format : MPEG AudioFormat version : Version 1Format profile : Layer 2Codec ID : 3Duration : 51 min 25 sBit rate mode : ConstantBit rate : 192 kb/sChannel(s) : 2 channelsSampling rate : 48.0 kHzCompression mode : LossyStream size : 70.6 MiB (6%)Language : English
OtherID : 1033 (0x409)-100Menu ID : 1030 (0x406)Format : TeletextLanguage : Russian
Стартовый лист | Результаты


[torrentc.info]_t_5367157.torrent
Торрент: Зарегистрирован ·  [ 2017-03-11 23:54 ] ·  e438e1e82a7e5e552f0e5e8b73e4bf3213ee0332

12 KB

Статус: проверено
Скачан: 0 раз
Размер: 1.1 GB
Оценка: 
(Голосов: 0)
Сказали спасибо: 0  Спасибо
Похожие темы
[Профиль]    [ЛС]
Показать сообщения:    
Ответить на тему

Текущее время: Сегодня 15:49

Часовой пояс: GMT + 7



Вы не можете начинать темы
Вы не можете отвечать на сообщения
Вы не можете редактировать свои сообщения
Вы не можете удалять свои сообщения
Вы не можете голосовать в опросах
Вы не можете прикреплять файлы к сообщениям
Вы можете скачивать файлы