Кубок Мира 2016-17. 7-й этап. Пхёнчхан (Корея). Женщины. Гонка преследования 10 км / Евроспорт [04.03.2017, Биатлон, HDTVRip/576p/50fps, MKV/H.264, RU/EN]

Ответить на тему
Статистика раздачи [Обновить пиров]
Размер:  610 MB   |    Зарегистрирован:  1 год 11 месяцев   |    Скачан:  0 раз

Полного источника не было: Никогда

 
   
 
 
 
Автор Сообщение

torrentc.info

Создавать темы 11-Мар-2017 23:54

[Цитировать]

Кубок Мира 2016-17. 7-й этап. Пхёнчхан (Корея)
Женщины. Гонка преследования 10 км Вид спорта: Биатлон
Комментарий: Профессиональный
Язык комментариев: Русский / Английский-Описание: Кубок Мира 2016-17. 7-й этап. Пхёнчхан (Корея). Женщины. Гонка преследования 10 км.-Автор рипа: music it's my life
Качество: HDTVRip
Формат файла: MKV
Видео кодек: AVC
Аудио кодек: AC3
Видео: MPEG4 Video (H264) 1024x576 (16:9) 50fps 1771kbps
Аудио: Dolby AC3 48000Hz stereo 128kbps
Продолжительность">

Скриншоты Продолжительность

00:44:34

MediaInfo

GeneralUnique ID : 27028466783838430530724989171979238577 (0x14557E4C61A0A28352AFAC73299BBCB1)Complete name : W:\раздачи\Кубок Мира 2016-17. 7-й этап. Пхёнчхан (Корея). Женщины. Гонка преследования 10 км. Eurosport HD. torrentc.mkvFormat : MatroskaFormat version : Version 4 / Version 2File size : 610 MiBDuration : 41 min 14 sOverall bit rate : 2 068 kb/sWriting application : XviD4PSP 7.0.358 DAILYWriting library : Lavf57.41.100 / Lavf57.41.100ENCODING_INFO : MPEGTS > MKV / H264 > X264 CQ 27 Fast / MP2 > AC3 CBR 128kbps / MP2 > AC3 CBR 128kbps
VideoID : 1Format : AVCFormat/Info : Advanced Video CodecFormat profile : High@L4.1Format settings, CABAC : YesFormat settings, ReFrames : 4 framesCodec ID : V_MPEG4/ISO/AVCBit rate : 1 771 kb/sWidth : 1 024 pixelsHeight : 576 pixelsDisplay aspect ratio : 16:9Frame rate mode : VariableOriginal frame rate : 50.000 FPSColor space : YUVChroma subsampling : 4:2:0Bit depth : 8 bitsScan type : ProgressiveWriting library : x264 core 148 r2762M 90a61ecEncoding settings : cabac=1 / ref=2 / deblock=1:0:0 / analyse=0x3:0x113 / me=hex / subme=6 / psy=1 / psy_rd=1.00:0.00 / mixed_ref=1 / me_range=16 / chroma_me=1 / trellis=1 / 8x8dct=1 / cqm=0 / deadzone=21,11 / fast_pskip=1 / chroma_qp_offset=-2 / threads=5 / lookahead_threads=1 / sliced_threads=0 / nr=0 / decimate=1 / interlaced=0 / bluray_compat=0 / constrained_intra=0 / bframes=3 / b_pyramid=2 / b_adapt=1 / b_bias=0 / direct=1 / weightb=1 / open_gop=0 / weightp=1 / keyint=500 / keyint_min=50 / scenecut=40 / intra_refresh=0 / rc=cqp / mbtree=0 / qp=27 / ip_ratio=1.40 / pb_ratio=1.30 / aq=0Default : YesForced : NoColor range : LimitedColor primaries : BT.709Transfer characteristics : BT.709Matrix coefficients : BT.709DURATION : 00:41:14.205000000
Audio #1ID : 2Format : AC-3Format/Info : Audio Coding 3Mode extension : CM (complete main)Format settings, Endianness : BigCodec ID : A_AC3Duration : 41 min 14 sBit rate mode : ConstantBit rate : 128 kb/sChannel(s) : 2 channelsChannel positions : Front: L RSampling rate : 48.0 kHzFrame rate : 31.250 FPS (1536 spf)Bit depth : 16 bitsCompression mode : LossyStream size : 37.8 MiB (6%)Language : RussianDefault : YesForced : NoDURATION : 00:41:14.240000000
Audio #2ID : 3Format : AC-3Format/Info : Audio Coding 3Mode extension : CM (complete main)Format settings, Endianness : BigCodec ID : A_AC3Duration : 41 min 14 sBit rate mode : ConstantBit rate : 128 kb/sChannel(s) : 2 channelsChannel positions : Front: L RSampling rate : 48.0 kHzFrame rate : 31.250 FPS (1536 spf)Bit depth : 16 bitsCompression mode : LossyStream size : 37.8 MiB (6%)Language : EnglishDefault : NoForced : NoDURATION : 00:41:14.240000000
Стартовый лист | Результаты


[torrentc.info]_t_5367164.torrent
Торрент: Зарегистрирован ·  [ 2017-03-11 23:54 ] ·  d479c22fd0c689d47fc6d72d3bd46545cfdc468e

12 KB

Статус: проверено
Скачан: 0 раз
Размер: 610 MB
Оценка: 
(Голосов: 0)
Сказали спасибо: 0  Спасибо
Похожие темы
[Профиль]    [ЛС]
Показать сообщения:    
Ответить на тему

Текущее время: Сегодня 14:47

Часовой пояс: GMT + 7



Вы не можете начинать темы
Вы не можете отвечать на сообщения
Вы не можете редактировать свои сообщения
Вы не можете удалять свои сообщения
Вы не можете голосовать в опросах
Вы не можете прикреплять файлы к сообщениям
Вы можете скачивать файлы