Кубок Мира 2016-17. 7-й этап. Пхёнчхан (Корея). Мужчины. Эстафета 4x7,5 км / Матч HD [05.03.2017, Биатлон, HDTVRip/400p, MKV/H.264, RU]

Ответить на тему
Статистика раздачи [Обновить пиров]
Размер:  1.14 GB   |    Зарегистрирован:  2 года   |    Скачан:  0 раз

Полного источника не было: Никогда

 
   
 
 
 
Автор Сообщение

Мых

Создавать темы 11-Мар-2017 23:54

[Цитировать]

Кубок Мира 2016-17. 7-й этап. Пхёнчхан (Корея)
Мужчины. Эстафета 4x7,5 км Вид спорта: Биатлон
Комментарий: Профессиональный
Язык комментариев: Русский (Губерниев)-Описание: Кубок Мира 2016-17. 7-й этап. Пхёнчхан (Корея). Мужчины. Эстафета 4x7,5 км.-Автор рипа: music it's my life
Качество: HDTVRip
Формат файла: MKV
Видео кодек: AVC
Аудио кодек: AC3
Видео: MPEG4 Video (H264) 704x400 (16:9) 25fps 1700kbps
Аудио: Dolby AC3 48000Hz stereo 128kbps
Продолжительность">

Скриншоты Продолжительность

01:27:29

MediaInfo

GeneralUnique ID : 141875728792004594683308020051730827038 (0x6ABC457D800195F3CF183E515229071E)Complete name : W:\раздачи\Кубок Мира 2016-17. 7-й этап. Пхёнчхан (Корея). Мужчины. Эстафета 4x7,5 км. torrentc.mkvFormat : MatroskaFormat version : Version 2File size : 1.14 GiBDuration : 1 h 27 minOverall bit rate : 1 866 kb/sWriting application : Lavf54.63.104Writing library : Lavf54.63.104 / Lavf54.63.104
VideoID : 1Format : AVCFormat/Info : Advanced Video CodecFormat profile : High@L4.1Format settings, CABAC : YesFormat settings, ReFrames : 4 framesCodec ID : V_MPEG4/ISO/AVCDuration : 1 h 27 minBit rate : 1 700 kb/sWidth : 704 pixelsHeight : 400 pixelsDisplay aspect ratio : 16:9Frame rate mode : ConstantFrame rate : 25.000 FPSColor space : YUVChroma subsampling : 4:2:0Bit depth : 8 bitsScan type : ProgressiveBits/(Pixel*Frame) : 0.242Stream size : 1.04 GiB (91%)Default : NoForced : NoColor range : LimitedColor primaries : BT.709Transfer characteristics : BT.709Matrix coefficients : BT.709
AudioID : 2Format : AC-3Format/Info : Audio Coding 3Mode extension : CM (complete main)Format settings, Endianness : BigCodec ID : A_AC3Duration : 1 h 27 minBit rate mode : ConstantBit rate : 128 kb/sChannel(s) : 2 channelsChannel positions : Front: L RSampling rate : 48.0 kHzFrame rate : 31.250 FPS (1536 spf)Bit depth : 16 bitsCompression mode : LossyStream size : 80.1 MiB (7%)Language : EnglishDefault : YesForced : No
Стартовый лист | Результаты


[torrentc.info]_t_5367805.torrent
Торрент: Зарегистрирован ·  [ 2017-03-11 23:54 ] ·  640918814eca063fd44c193b14eb6d882c85c9b7

12 KB

Статус: проверено
Скачан: 0 раз
Размер: 1.14 GB
Оценка: 
(Голосов: 0)
Сказали спасибо: 0  Спасибо
Похожие темы
[Профиль]    [ЛС]
Показать сообщения:    
Ответить на тему

Текущее время: Сегодня 05:55

Часовой пояс: GMT + 7



Вы не можете начинать темы
Вы не можете отвечать на сообщения
Вы не можете редактировать свои сообщения
Вы не можете удалять свои сообщения
Вы не можете голосовать в опросах
Вы не можете прикреплять файлы к сообщениям
Вы можете скачивать файлы