Биатлон с Дмитрием Губерниевым. Сезон 2016/2017. Выпуск 16 [03.03.2017, Биатлон, HDTV, 1080i, H.264, RU]

Ответить на тему
Статистика раздачи [Обновить пиров]
Размер:  1.26 GB   |    Зарегистрирован:  1 год 11 месяцев   |    Скачан:  0 раз

Полного источника не было: Никогда

 
   
 
 
 
Автор Сообщение

torrentc.info

Создавать темы 11-Мар-2017 23:54

[Цитировать]

Биатлон с Дмитрием Губерниевым
Сезон 2016/2017. Выпуск 16 Дата эфира: 03.03.2017
Комментарий: Профессиональный
Язык комментариев: Русский
Ведущий: Дмитрий Губерниев
Продолжительность: 00:24:01-Описание: Для биатлонистов зима - это время мобилизации сил и полной концентрации. Для зрителей - начало интереснейших соревнований и сильных переживаний за сборную. В программе все, о чем хотят знать болельщики: новости и комментарии, интервью с лидерами соревнований и рассказы о российской команде.
В этом выпуске:
- У Тюмени отобрали ЧМ 2021 года. Кого еще кроме нас это огорчило?
- Почему наши женщины порой удивляют и пугают своей "никакой" формой даже тренеров?
- Нужно ли в биатлон добавить немного экзотики, пригласив таких спортсменов как Адриан Солано у лыжников?
- Кто самый толстый биатлонист? Есть ли конкуренты футбольному вратарю весом 125 кг?
- ЧМ в Хохфильцене: подведем итоги чемпионата;
- Особенности национального биатлона в Корее: главный тренер - русский, сервисмен - русский, массажист - русский, есть и русские биатлонисты;
- Новые имена на Кубке мира: Миронова и Махамбетов. Представление спортсменов;
и другое
-Автор рипа: music it's my life
Качество: HDTV
Формат файла: TS
Видео кодек: AVC
Аудио кодек: MP2
Видео: MPEG4 Video (H264) 1920x1080 (16:9) 25.00fps 6968kbps
Аудио: MPEG Audio 48000Hz stereo 192kbps
MediaInfo">

Скриншоты (не обновляются) MediaInfo


GeneralID : 1 (0x1)Complete name : W:\раздачи\Би с Гу. Сезон 2016-2017. Выпуск 16. torrentc.tsFormat : MPEG-TSFile size : 1.26 GiBDuration : 24 min 1 sOverall bit rate mode : VariableOverall bit rate : 7 534 kb/s
VideoID : 324 (0x144)Menu ID : 12104 (0x2F48)Format : AVCFormat/Info : Advanced Video CodecFormat profile : High@L4Format settings, CABAC : YesFormat settings, ReFrames : 4 framesCodec ID : 27Duration : 24 min 1 sBit rate : 6 968 kb/sWidth : 1 920 pixelsHeight : 1 080 pixelsDisplay aspect ratio : 16:9Frame rate : 25.000 FPSStandard : ComponentColor space : YUVChroma subsampling : 4:2:0Bit depth : 8 bitsScan type : InterlacedScan type, store method : Separated fieldsScan order : Top Field FirstBits/(Pixel*Frame) : 0.134Stream size : 1.17 GiB (92%)Color range : LimitedColor primaries : BT.709Transfer characteristics : BT.709Matrix coefficients : BT.709
AudioID : 404 (0x194)Menu ID : 12104 (0x2F48)Format : MPEG AudioFormat version : Version 1Format profile : Layer 2Codec ID : 3Duration : 24 min 1 sBit rate mode : ConstantBit rate : 192 kb/sChannel(s) : 2 channelsSampling rate : 48.0 kHzCompression mode : LossyStream size : 33.0 MiB (3%)Language : Russian


[torrentc.info]_t_5368555.torrent
Торрент: Зарегистрирован ·  [ 2017-03-11 23:54 ] ·  5c864da64ca196de93e346a6499a58f5eb9171bd

13 KB

Статус: проверено
Скачан: 0 раз
Размер: 1.26 GB
Оценка: 
(Голосов: 0)
Сказали спасибо: 0  Спасибо
Похожие темы
[Профиль]    [ЛС]
Показать сообщения:    
Ответить на тему

Текущее время: Сегодня 15:58

Часовой пояс: GMT + 7



Вы не можете начинать темы
Вы не можете отвечать на сообщения
Вы не можете редактировать свои сообщения
Вы не можете удалять свои сообщения
Вы не можете голосовать в опросах
Вы не можете прикреплять файлы к сообщениям
Вы можете скачивать файлы