Я – Болт / I Am Bolt (Бенжамин Тернер / Benjamin Turner, Гейб Тернер / Gabe Turner) [2016, Великобритания, спорт, BDRip 720p] VO (Назаров) + Original Eng + Sub Eng

Ответить на тему
Статистика раздачи [Обновить пиров]
Размер:  6.96 GB   |    Зарегистрирован:  1 год 11 месяцев   |    Скачан:  0 раз
Сидеров:  35  [  0 KB/s  ]   Подробная статистика скачивающих
 
   
 
 
 
Автор Сообщение

torrentc.info

Создавать темы 11-Мар-2017 23:54

[Цитировать]

Я – Болт / I Am Bolt
Страна: Великобритания
Студия: Fulwell 73
Жанр: Спорт
Год выхода: 2016
Продолжительность: 01:47:26
Перевод: Одноголосый закадровый - Вадим Назаров
Cубтитры: английские
Оригинальная аудиодорожка: Английский
Режиссер: Бенжамин Тернер / Benjamin Turner, Гейб Тернер / Gabe Turner
В ролях: Усэйн Болт, Пеле, Неймар, Серена Уильямс, Асафа Пауэлл, Себастьян Коу, Зигги Марли, Нас, Йохан Блейк
Описание: Усэйн Болт – единственный в мире спортсмен, выигравший спринтерские дистанции на трех Олимпийских играх подряд. Ему рукоплескали Пекин, Лондон и Рио. За свою пока еще продолжающуюся спортивную карьеру Болт установил 8 мировых рекордов и стал главным ямайским спринтером всех времен. Режиссеры Бенджамин и Гейб Тернер представляют захватывающий микс из трансляций и архивных кадров, которые со всей полнотой расскажут о том, что за человек Усэйн Болт и как ему дались все его огромные заслуги перед родиной и спортом. Этот фильм показывает Болта не только глазами его восхищенных товарищей – не менее великих спортсменов. Кое-что ямайский спринтер поведает о себе сам, оставляя, впрочем, больше загадок и вопросов, чем ответов. Оказывается, дома он очень любит полениться на диване и пить пиво с чипсами, что не мешает ему собрать волю в кулак и в очередной раз стать лучшим из лучших.
Дополнительная информация:
Автор релиза -
Заказ перевода у Вадима Назарова (декабрь 2016) - ylnian
За сборку дороги спасибо rammzez
Источник для рипа - Blu-Ray (EUR) - I Am Bolt 2016 1080p EUR Blu-ray AVC DTS-HD MA 5.1-TAPAS
Сохранены чаптеры с BD
Субтитры взяты в сети

Сэмпл: https://yadi.sk/i/cMjzQqpb33ZJ4b
Качество видео: BDRip 720p
Формат файла: MKV
Видео: MPEG-4, 1280x720 (16:9), 23.976 fps, 7736 kbps, 0.350 bit/pixel
Аудио 1: Русский DTS, 5.1, 48 kHz, 768 kbps, 24-bit - VO
Аудио 2: Английский DTS, 5.1, 48 kHz, 768 kbps, 24-bit
Формат файла субтитров: softsub (SRT)

MediaInfo

---[Information] [06.12.2016 7:21:59] x264 [info]: frame I:1178 Avg QP:15.21 size:136172
---[Information] [06.12.2016 7:21:59] x264 [info]: frame P:37297 Avg QP:16.54 size: 64667
---[Information] [06.12.2016 7:21:59] x264 [info]: frame B:121159 Avg QP:18.33 size: 30265
---[Information] [06.12.2016 7:21:59] x264 [info]: consecutive B-frames: 2.6% 4.2% 8.9% 31.3% 17.8% 18.3% 4.6% 7.1% 1.6% 0.5% 0.5% 2.8%
---[Information] [06.12.2016 7:21:59] x264 [info]: mb I I16..4: 6.9% 72.8% 20.3%
---[Information] [06.12.2016 7:21:59] x264 [info]: mb P I16..4: 2.0% 25.0% 2.7% P16..4: 23.9% 27.6% 10.4% 1.8% 0.2% skip: 6.4%
---[Information] [06.12.2016 7:21:59] x264 [info]: mb B I16..4: 0.6% 5.0% 0.3% B16..8: 38.5% 24.9% 4.9% direct: 5.8% skip:20.0% L0:39.0% L1:40.2% BI:20.7%
---[Information] [06.12.2016 7:21:59] x264 [info]: 8x8 transform intra:83.4% inter:62.9%
---[Information] [06.12.2016 7:21:59] x264 [info]: direct mvs spatial:31.0% temporal:69.0%
---[Information] [06.12.2016 7:21:59] x264 [info]: coded y,uvDC,uvAC intra: 83.1% 90.6% 78.8% inter: 35.2% 47.7% 21.3%
---[Information] [06.12.2016 7:21:59] x264 [info]: i16 v,h,dc,p: 19% 18% 6% 57%
---[Information] [06.12.2016 7:21:59] x264 [info]: i8 v,h,dc,ddl,ddr,vr,hd,vl,hu: 9% 10% 9% 9% 12% 12% 13% 12% 15%
---[Information] [06.12.2016 7:21:59] x264 [info]: i4 v,h,dc,ddl,ddr,vr,hd,vl,hu: 12% 13% 7% 7% 14% 12% 13% 10% 12%
---[Information] [06.12.2016 7:21:59] x264 [info]: i8c dc,h,v,p: 49% 24% 14% 14%
---[Information] [06.12.2016 7:21:59] x264 [info]: Weighted P-Frames: Y:5.7% UV:3.9%
---[Information] [06.12.2016 7:21:59] x264 [info]: ref P L0: 47.9% 10.7% 17.1% 7.0% 5.2% 4.0% 3.4% 2.3% 2.2% 0.3% 0.0%
---[Information] [06.12.2016 7:21:59] x264 [info]: ref B L0: 76.7% 11.7% 4.8% 2.4% 1.8% 1.4% 0.8% 0.3%
---[Information] [06.12.2016 7:21:59] x264 [info]: ref B L1: 92.7% 7.3%
General
Unique ID : 232240752100973375553967273675172693704 (0xAEB7F11EE7C301779A000429A1A546C8)
Complete name : E:\I.Am.Bolt.2016.BDRip.720p-ylnian.mkv
Format : Matroska
Format version : Version 4 / Version 2
File size : 6.96 GiB
Duration : 1 h 47 min
Overall bit rate : 9 276 kb/s
Movie name : I.Am.Bolt.2016.BDRip.720p-ylnian
Encoded date : UTC 2016-12-15 05:50:18
Writing application : mkvmerge v9.3.1 ('Mask Machine') 64bit
Writing library : libebml v1.3.4 + libmatroska v1.4.5
Video
ID : 1
Format : AVC
Format/Info : Advanced Video Codec
Format profile : High@L4.1
Format settings, CABAC : Yes
Format settings, ReFrames : 9 frames
Codec ID : V_MPEG4/ISO/AVC
Duration : 1 h 47 min
Bit rate : 7 736 kb/s
Width : 1 280 pixels
Height : 720 pixels
Display aspect ratio : 16:9
Frame rate mode : Constant
Frame rate : 23.976 (24000/1001) FPS
Color space : YUV
Chroma subsampling : 4:2:0
Bit depth : 8 bits
Scan type : Progressive
Bits/(Pixel*Frame) : 0.350
Stream size : 5.81 GiB (83%)
Title : I.Am.Bolt.2016.BDRip.720p-ylnian
Language : English
Default : Yes
Forced : Yes
Audio #1
ID : 2
Format : DTS
Format/Info : Digital Theater Systems
Mode : 16
Format settings, Endianness : Big
Codec ID : A_DTS
Duration : 1 h 47 min
Bit rate mode : Constant
Bit rate : 768 kb/s
Channel(s) : 6 channels
Channel positions : Front: L C R, Side: L R, LFE
Sampling rate : 48.0 kHz
Frame rate : 93.750 FPS (512 spf)
Bit depth : 24 bits
Compression mode : Lossy
Stream size : 590 MiB (8%)
Title : VO (DTS 5.1 768 kbps)
Language : Russian
Default : Yes
Forced : Yes
Audio #2
ID : 3
Format : DTS
Format/Info : Digital Theater Systems
Mode : 16
Format settings, Endianness : Big
Codec ID : A_DTS
Duration : 1 h 47 min
Bit rate mode : Constant
Bit rate : 768 kb/s
Channel(s) : 6 channels
Channel positions : Front: L C R, Side: L R, LFE
Sampling rate : 48.0 kHz
Frame rate : 93.750 FPS (512 spf)
Bit depth : 24 bits
Compression mode : Lossy
Stream size : 590 MiB (8%)
Title : DTS 5.1 768 kbps
Language : English
Default : No
Forced : No
Text
ID : 4
Format : UTF-8
Codec ID : S_TEXT/UTF8
Codec ID/Info : UTF-8 Plain Text
Duration : 1 h 43 min
Bit rate : 83 b/s
Count of elements : 1388
Stream size : 63.1 KiB (0%)
Language : English
Default : No
Forced : No
Menu
00:00:00.000 : en:00:00:00.000
00:04:55.192 : en:00:04:55.192
00:11:54.236 : en:00:11:54.236
00:20:10.273 : en:00:20:10.273
00:27:30.463 : en:00:27:30.463
00:38:44.471 : en:00:38:44.471
00:47:17.148 : en:00:47:17.148
00:59:56.365 : en:00:59:56.365
01:13:51.283 : en:01:13:51.283
01:20:28.514 : en:01:20:28.514
01:29:37.186 : en:01:29:37.186
01:36:47.951 : en:01:36:47.951
01:44:59.399 : en:01:44:59.399

Скриншот c названием фильма



[torrentc.info]_t_5326195.torrent
Торрент: Зарегистрирован ·  [ 2017-03-11 23:54 ] ·  fa5a6aade9d14324c9218ab0e136ae2b7f1da70a

35 KB

Статус: проверено
Скачан: 0 раз
Размер: 6.96 GB
Оценка: 
(Голосов: 0)
Сказали спасибо: 0  Спасибо
Похожие темы
[Профиль]    [ЛС]
Показать сообщения:    
Ответить на тему

Текущее время: Сегодня 14:22

Часовой пояс: GMT + 7



Вы не можете начинать темы
Вы не можете отвечать на сообщения
Вы не можете редактировать свои сообщения
Вы не можете удалять свои сообщения
Вы не можете голосовать в опросах
Вы не можете прикреплять файлы к сообщениям
Вы можете скачивать файлы