Шкатулка с сюрпризом / Maiorul si moartea (Александр Боянджиу / Alexandru Boiangiu) [1968, Румыния, детектив, VHSRip] [Советская прокатная копия] Dub (Горького)

Ответить на тему
Статистика раздачи [Обновить пиров]
Размер:  4.08 GB   |    Зарегистрирован:  1 год 11 месяцев   |    Скачан:  0 раз

Полного источника не было: 1 год 7 месяцев

 
   
 
 
 
Автор Сообщение

torrentc.info

Создавать темы 11-Мар-2017 21:42

[Цитировать]

Шкатулка с сюрпризом / Maiorul si moartea [Советская прокатная копия]- Страна: Румыния
Жанр: детектив
Год выхода: 1968
Продолжительность: 01:19:22-Перевод: Профессиональный (дублированный) - Киностудия им. М. Горького
Cубтитры: нет-Режиссер: Александр Боянджиу / Alexandru Boiangiu
В ролях: Георге Диникэ, Ион Стэнеску, Константин Рауцки, Хоря Попеску, Ион Ангел, Жан Константин, Марин Морару, Флорин Скэрлэтеску, Петре Паулгофер, Штефан Михэйлеску-Брэила, Василика Тастаман...- | : -Описание: Майор госбезопасности Таке получает анонимки, настриженные из газет, с содержанием: «Надеюсь на скорую встречу. Смерть».-Семпл: http://sendfile.su/1316684-Тип релиза: VHSRip
Формат файла: MPG
Видео: 720x576 (4:3) @ 768x576, 25.000 fps, MPEG-2 Video, ~6962 Kbps, 0.671 bits/pixel
Аудио: Русский, 48.0 KHz, AC3, 2 ch, 256 Kbps

MediaInfo

GeneralComplete name : Шкатулка с сюрпризом 1968 Dub Горького.mpgFormat : MPEG-PSFile size : 4.08 GiBDuration : 1 h 19 minOverall bit rate mode : VariableOverall bit rate : 7 365 kb/s
VideoID : 224 (0xE0)Format : MPEG VideoFormat version : Version 2Format profile : Main@MainFormat settings, BVOP : YesFormat settings, Matrix : CustomFormat settings, GOP : M=3, N=12Format settings, picture structure : FrameDuration : 1 h 19 minBit rate mode : VariableBit rate : 6 962 kb/sMaximum bit rate : 9 500 kb/sWidth : 720 pixelsHeight : 576 pixelsDisplay aspect ratio : 4:3Frame rate : 25.000 FPSStandard : PALColor space : YUVChroma subsampling : 4:2:0Bit depth : 8 bitsScan type : InterlacedScan order : Top Field FirstCompression mode : LossyBits/(Pixel*Frame) : 0.671Time code of first frame : 00:00:00:00Time code source : Group of pictures headerGOP, Open/Closed : OpenGOP, Open/Closed of first frame : ClosedStream size : 3.86 GiB (95%)
AudioID : 189 (0xBD)-128 (0x80)Format : AC-3Format/Info : Audio Coding 3Mode extension : CM (complete main)Format settings, Endianness : BigMuxing mode : DVD-VideoDuration : 1 h 19 minBit rate mode : ConstantBit rate : 256 kb/sChannel(s) : 2 channelsChannel positions : Front: L RSampling rate : 48.0 kHzFrame rate : 31.250 FPS (1536 spf)Bit depth : 16 bitsCompression mode : LossyStream size : 145 MiB (3%)


[torrentc.info]_t_5370982.torrent
Торрент: Зарегистрирован ·  [ 2017-03-11 21:42 ] ·  6b72a9c9e0bdef737cffd3053b8f92440209a8ee

21 KB

Статус: проверено
Скачан: 0 раз
Размер: 4.08 GB
Оценка: 
(Голосов: 0)
Сказали спасибо: 0  Спасибо
Похожие темы
[Профиль]    [ЛС]
Показать сообщения:    
Ответить на тему

Текущее время: Сегодня 13:52

Часовой пояс: GMT + 7



Вы не можете начинать темы
Вы не можете отвечать на сообщения
Вы не можете редактировать свои сообщения
Вы не можете удалять свои сообщения
Вы не можете голосовать в опросах
Вы не можете прикреплять файлы к сообщениям
Вы можете скачивать файлы