(Electronic, Experimental) [WEB] Hecker - A Script For Machine Synthesis - 2017, FLAC (tracks), lossless

Ответить на тему
Статистика раздачи [Обновить пиров]
Размер:  236 MB   |    Зарегистрирован:  1 год 11 месяцев   |    Скачан:  0 раз

Полного источника не было: Никогда

 
   
 
 
 
Автор Сообщение

torrentc.info

Создавать темы 11-Мар-2017 21:42

[Цитировать]

Hecker / A Script For Machine Synthesis
[img=right]https://4.bp.blogspot.com/-Eslk0e-vG9M/WEqMKoxGOpI/...r_1400.jpg[/img]
Жанр: Electronic, Experimental
Носитель: WEB
Год издания: 2017
Издатель (лейбл): Editions Mego
Номер по каталогу: EMEGO 226
Аудиокодек: FLAC (*.flac)
Тип рипа: tracks
Битрейт аудио: lossless
Продолжительность: 01:00:48
Источник (релизер): Bleep.com
Наличие сканов в содержимом раздачи: нет
Треклист:
01. Prologue [0:11]
02. A For Machine Synthesis [57:24]
03. Credits [3:12]

auCDtect Task Manager

-----------------------
DON'T MODIFY THIS FILE
-----------------------
PERFORMER: auCDtect Task Manager, ver. 1.6.0 RC1 build 1.6.0.1Copyright (c) 2008-2010 y-soft. All rights reservedhttp://y-soft.org
ANALYZER: auCDtect: CD records authenticity detector, version 0.8.2Copyright (c) 2004 Oleg Berngardt. All rights reserved.Copyright (c) 2004 Alexander Djourik. All rights reserved.
FILE: 01 - Prologue.flac Size: 390308 Hash: F41FC1AE60D281909D47DECFFE1E3AE1 Accuracy: -m0 Conclusion: CDDA 100% Signature: 6E91B21D0A8700AA672D8B7773CFA5C103C1E75EFILE: 02 - A Script For Machine Synthesis.flac Size: 235122972 Hash: 5A107633A53CAEC44E3A4BF2B704A04C Accuracy: -m0 Conclusion: CDDA 100% Signature: ACCCB0CEDD75F7403ED7B9B692E926D94CD2343FFILE: 03 - Credits.flac Size: 11507802 Hash: DE44FC59D7BEBEB9F4B6EF49978C2208 Accuracy: -m0 Conclusion: CDDA 100% Signature: BF85E8814F257D5A7E070C3F40433B935CEF0495

Dynamic Range Meter

foobar2000 1.3.8 / Dynamic Range Meter 1.1.1log date: 2017-03-08 18:58:15
--------------------------------------------------------------------------------Analyzed: Hecker / A Script For Machine Synthesis--------------------------------------------------------------------------------
DR Peak RMS Duration Track--------------------------------------------------------------------------------DR19 -2.61 dB -24.81 dB 0:11 01-PrologueDR12 0.00 dB -15.09 dB 57:25 02-A Script For Machine SynthesisDR11 -0.32 dB -13.35 dB 3:13 03-Credits--------------------------------------------------------------------------------
Number of tracks: 3Official DR value: DR14
Samplerate: 44100 HzChannels: 2Bits per sample: 16Bitrate: 474 kbpsCodec: FLAC================================================================================

Об исполнителе (группе)

The latest work from Florian Hecker A Script for Machine Synthesis is an experimental auditory drama and a model of abstraction. A Script for Machine Synthesis presents a complex simplicity that spirals in an unending manner as an audio image of the uncanny valley. It is the third chapter in the trilogy of text-sound pieces Hecker has collaborated with the philosopher Reza Negarestani. A resynthesized voice outlines procedure as procedure itself unfolds.
The suggestive encounter with a pink ice cube is a conceptual point of departure for a scene in which linguistic chimeras of descriptors are materialized through synthetic trophies, mental props and auditory objects.
Hecker presents a synthesis of the gap in the valley which we almost know. The motifs Hecker has staged in the last decade, the text, the sound, the scent, the obelisk, the demon, the self, the other all appear throughout in a thorough, rigid and formal exploration.
Exeunt all human actors, A Script for Machine Synthesis is an experiment in putting synthetic emptiness back into synthetic thought.
Доп. информация:
http://florianhecker.blogspot.it/
https://bleep.com/release/78683-hecker-a-script-for-machine-synthesis


[torrentc.info]_t_5369879.torrent
Торрент: Зарегистрирован ·  [ 2017-03-11 21:42 ] ·  42d20219595b4e869a63a02138860e639dc5c1f2

19 KB

Статус: проверено
Скачан: 0 раз
Размер: 236 MB
Оценка: 
(Голосов: 0)
Сказали спасибо: 0  Спасибо
Похожие темы
[Профиль]    [ЛС]
Показать сообщения:    
Ответить на тему

Текущее время: Сегодня 09:41

Часовой пояс: GMT + 7



Вы не можете начинать темы
Вы не можете отвечать на сообщения
Вы не можете редактировать свои сообщения
Вы не можете удалять свои сообщения
Вы не можете голосовать в опросах
Вы не можете прикреплять файлы к сообщениям
Вы можете скачивать файлы