Я знаю, что ты знаешь... / Io so che tu sai che io so (Альберто Сорди / Alberto Sordi) [1982, Италия, комедия, Telesync > DVD] [Советская прокатная копия] Dub (Горького)

Ответить на тему
Статистика раздачи [Обновить пиров]
Размер:  3.92 GB   |    Зарегистрирован:  1 год 11 месяцев   |    Скачан:  2 раза

Полного источника не было: 2 часа 25 минут

 
   
 
 
 
Автор Сообщение

torrentc.info

Создавать темы 11-Мар-2017 21:42

[Цитировать]

Я знаю, что ты знаешь... / Io so che tu sai che io so [Советская прокатная копия]- Страна: Италия
Жанр: комедия
Год выхода: 1982
Продолжительность: 01:31:05-Перевод: Профессиональный (дублированный) - Киностудия им. М. Горького
Cубтитры: нет-Режиссер: Альберто Сорди / Alberto Sordi
В ролях: Альберто Сорди, Моника Витти, Ивана Монти, Изабелла де Бернарди, Джанни Летта, Сандро Патерностро...- | : -Описание: Фабио Бонетти — преуспевающий служащий банка, интересующийся исключительно футболом и рыбалкой. Однажды он с удивлением замечает, что за его женой Ливией, на которой он женат уже почти 20 лет, следят. Выясняется, что слежку ведут по ошибке, но к Фабио в руки попадают пленки, запечатлевшие частную жизнь его жены, о которой он и не догадывался, и просмотр которых коренным образом меняет его мировозрение…-Семпл: http://sendfile.su/1316676-Тип релиза: Telesync
Формат файла: DVD-Video
Видео: 704x576 (4:3), 25.000 fps, MPEG-2 Video, ~5807 Kbps, 0.573 bits/pixel
Аудио: Русский, 48.0 KHz, AC3, 2 ch, 256 Kbps

MediaInfo

GeneralComplete name :\Я знаю, что ты знаешь... 1982 Dub Горького\VIDEO_TS\VTS_01_3.VOBFormat : MPEG-PSFile size : 1 023 MiBDuration : 23 min 7 sOverall bit rate mode : VariableOverall bit rate : 6 186 kb/s
VideoID : 224 (0xE0)Format : MPEG VideoFormat version : Version 2Format profile : Main@MainFormat settings, BVOP : YesFormat settings, Matrix : DefaultFormat settings, GOP : M=3, N=12Format settings, picture structure : FrameDuration : 23 min 7 sBit rate mode : VariableBit rate : 5 807 kb/sMaximum bit rate : 9 579 kb/sWidth : 704 pixelsHeight : 576 pixelsDisplay aspect ratio : 4:3Frame rate : 25.000 FPSStandard : PALColor space : YUVChroma subsampling : 4:2:0Bit depth : 8 bitsScan type : InterlacedScan order : Top Field FirstCompression mode : LossyBits/(Pixel*Frame) : 0.573Time code of first frame : 00:46:36:00Time code source : Group of pictures headerGOP, Open/Closed : OpenStream size : 961 MiB (94%)Color primaries : BT.601 PALTransfer characteristics : BT.470 System B, BT.470 System GMatrix coefficients : BT.601
AudioID : 189 (0xBD)-128 (0x80)Format : AC-3Format/Info : Audio Coding 3Mode extension : CM (complete main)Format settings, Endianness : BigMuxing mode : DVD-VideoDuration : 23 min 7 sBit rate mode : ConstantBit rate : 256 kb/sChannel(s) : 2 channelsChannel positions : Front: L RSampling rate : 48.0 kHzFrame rate : 31.250 FPS (1536 spf)Bit depth : 16 bitsCompression mode : LossyDelay relative to video : -152 msStream size : 42.4 MiB (4%)
Menu

DVDInfo

Title: Я знаю, что ты знаешь... 1982 Dub ГорькогоSize: 3.92 Gb ( 4 106 378,00 KBytes ) - DVD-5Enabled regions: 1, 2, 3, 4, 5, 6, 7, 8
VTS_01 : Play Length: 01:31:05 Video: PAL 4:3 (704x576) VBR Audio: Not specified, AC3, 2/0 (L,R) ch, 256 kbps, Delay 0 mSec


[torrentc.info]_t_5370965.torrent
Торрент: Зарегистрирован ·  [ 2017-03-11 21:42 ] ·  04375af2f10145057027be2471dd524acb2bf09b

21 KB

Статус: проверено
Скачан: 2 раз
Размер: 3.92 GB
Оценка: 
(Голосов: 0)
Сказали спасибо: 0  Спасибо
Похожие темы
[Профиль]    [ЛС]
Показать сообщения:    
Ответить на тему

Текущее время: Сегодня 10:06

Часовой пояс: GMT + 7



Вы не можете начинать темы
Вы не можете отвечать на сообщения
Вы не можете редактировать свои сообщения
Вы не можете удалять свои сообщения
Вы не можете голосовать в опросах
Вы не можете прикреплять файлы к сообщениям
Вы можете скачивать файлы