Стильная штучка / Sweet Home Alabama (Энди Теннант / Andy Tennant) [2002, США, мелодрама, комедия, BDRip-AVC] Dub + DVO + 2хAVO + Original Eng + Sub (Rus, Eng)

Ответить на тему
Статистика раздачи [Обновить пиров]
Размер:  3.89 GB   |    Зарегистрирован:  1 год 9 месяцев   |    Скачан:  0 раз

Полного источника не было: Никогда

 
   
 
 
 
Автор Сообщение

torrentc.info

Создавать темы 14-Фев-2017 19:18

[Цитировать]

Стильная штучка / Sweet Home Alabama- Страна: США
Жанр: мелодрама, комедия
Год выхода: 2002
Продолжительность: 01:48:47
Перевод 1: Профессиональный (дублированный)
Перевод 2: Профессиональный (двухголосый закадровый) DDV
Перевод 3: Авторский (одноголосый закадровый) Евгений Рудой
Перевод 4: Авторский (одноголосый закадровый) Владимир Королев
Cубтитры: русские, английские
Оригинальная аудиодорожка: английский
Режиссер: Энди Теннант / Andy Tennant
В ролях: Риз Уизерспун, Джош Лукас, Патрик Демпси, Кэндис Берген, Мэри Кэй Плэйс, Фред Уорд, Джин Смарт, Итэн Эмбри, Мелани Лински, Кортни Гейнс
Описание: В этой романтичной комедии нью-йоркский дизайнер мод Мелани Кармайкл внезапно оказывается очарована самым знатным холостяком города. Но прошлое Мелани хранит много тайн, включая Джейка, мужа, за которого она вышла замуж в средней школе и который отказывается разводиться с ней.Решив закончить их спорные отношения раз и навсегда, Мелани тайком возвращается домой в штат Алабама, но там она обнаруживает, что можно забрать девушку с Юга, но никогда нельзя забрать Юг из девушки...
Сэмпл: http://sendfile.su/1301944
[img]https://rating.kinopoisk.ru/4584.gif[/img]
Качество видео: BDRip-AVC (Sweet Home Alabama 2002 CEE 1080p Bluray AVC DTS-HD MA 5.1 DVDSEED - Gogeta)
Формат файла: MKV
Видео: x264, 988x420 (2.35:1) 23,976 fps, ~2930 kbps, 0,294 bit/pixel
Аудио 1: 48 kHz, AC3 Dolby Digital, 3/2 (L,C,R,l,r) + LFE ch, ~448 kbps | Дубляж
Аудио 2: 48 kHz, AC3 Dolby Digital, 3/2 (L,C,R,l,r) + LFE ch, ~448 kbps | Английский
---------------------------------------отдельно---------------------------------------------------
Аудио 3: 48 kHz, AC3 Dolby Digital, 3/2 (L,C,R,l,r) + LFE ch, ~384 kbps | DDV
Аудио 4: 48 kHz, AC3 Dolby Digital, 3/2 (L,C,R,l,r) + LFE ch, ~448 kbps | Визгунов
Аудио 5: 48 kHz, AC3 Dolby Digital, 3/2 (L,C,R,l,r) + LFE ch, ~448 kbps | Королев
Формат файла субтитров: softsub (SRT)

MediaInfo

General
Unique ID : 255061621252226297671026394111523144226 (0xBFE314D6D9C8E3FFAD31AA0CC23BC222)
Format : Matroska
Format version : Version 4 / Version 2
File size : 2.91 GiB
Duration : 1h 49mn
Overall bit rate : 3 819 Kbps
Encoded date : UTC 2017-01-23 14:06:59
Writing application : mkvmerge v9.7.1 ('Pandemonium') 64bit
Writing library : libebml v1.3.4 + libmatroska v1.4.5
Video #1
ID : 1
Format : AVC
Format/Info : Advanced Video Codec
Format profile : High@L4.1
Format settings, CABAC : Yes
Format settings, ReFrames : 10 frames
Codec ID : V_MPEG4/ISO/AVC
Duration : 1h 48mn
Bit rate : 2 930 Kbps
Width : 988 pixels
Height : 420 pixels
Display aspect ratio : 2.35:1
Frame rate mode : Constant
Frame rate : 23.976 (24000/1001) fps
Color space : YUV
Chroma subsampling : 4:2:0
Bit depth : 8 bits
Scan type : Progressive
Bits/(Pixel*Frame) : 0.294
Stream size : 2.23 GiB (76%)
Writing library : x264 core 146 r2538 121396c
Encoding settings : cabac=1 / ref=10 / deblock=1:-3:-2 / analyse=0x3:0x113 / me=umh / subme=10 / psy=1 / psy_rd=1.00:0.00 / mixed_ref=1 / me_range=32 / chroma_me=1 / trellis=2 / 8x8dct=1 / cqm=0 / deadzone=21,11 / fast_pskip=1 / chroma_qp_offset=-2 / threads=6 / lookahead_threads=1 / sliced_threads=0 / nr=0 / decimate=1 / interlaced=0 / bluray_compat=0 / constrained_intra=0 / bframes=13 / b_pyramid=2 / b_adapt=2 / b_bias=0 / direct=1 / weightb=1 / open_gop=0 / weightp=2 / keyint=250 / keyint_min=23 / scenecut=40 / intra_refresh=0 / rc_lookahead=50 / rc=2pass / mbtree=1 / bitrate=2930 / ratetol=1.0 / qcomp=0.60 / qpmin=0 / qpmax=69 / qpstep=4 / cplxblur=20.0 / qblur=0.5 / ip_ratio=1.40 / aq=3:1.00
Language : English
Default : Yes
Forced : No
Audio #2
ID : 2
Format : AC-3
Format/Info : Audio Coding 3
Mode extension : CM (complete main)
Format settings, Endianness : Big
Codec ID : A_AC3
Duration : 1h 49mn
Bit rate mode : Constant
Bit rate : 448 Kbps
Channel(s) : 6 channels
Channel positions : Front: L C R, Side: L R, LFE
Sampling rate : 48.0 KHz
Frame rate : 31.250 fps (1536 spf)
Compression mode : Lossy
Stream size : 349 MiB (12%)
Language : Russian
Default : Yes
Forced : No
Audio #3
ID : 3
Format : AC-3
Format/Info : Audio Coding 3
Mode extension : CM (complete main)
Format settings, Endianness : Big
Codec ID : A_AC3
Duration : 1h 49mn
Bit rate mode : Constant
Bit rate : 448 Kbps
Channel(s) : 6 channels
Channel positions : Front: L C R, Side: L R, LFE
Sampling rate : 48.0 KHz
Frame rate : 31.250 fps (1536 spf)
Compression mode : Lossy
Stream size : 350 MiB (12%)
Language : English
Default : No
Forced : No
Text #4
ID : 4
Format : UTF-8
Codec ID : S_TEXT/UTF8
Codec ID/Info : UTF-8 Plain Text
Duration : 1h 42mn
Bit rate : 94 bps
Count of elements : 1469
Stream size : 70.9 KiB (0%)
Title : Blu-Ray
Language : Russian
Default : No
Forced : No
Text #5
ID : 5
Format : UTF-8
Codec ID : S_TEXT/UTF8
Codec ID/Info : UTF-8 Plain Text
Duration : 1h 42mn
Bit rate : 94 bps
Count of elements : 1469
Stream size : 71.0 KiB (0%)
Title : R5
Language : Russian
Default : No
Forced : No
Text #6
ID : 6
Format : UTF-8
Codec ID : S_TEXT/UTF8
Codec ID/Info : UTF-8 Plain Text
Duration : 1h 42mn
Bit rate : 111 bps
Count of elements : 1066
Stream size : 83.7 KiB (0%)
Language : Russian
Default : No
Forced : No
Text #7
ID : 7
Format : UTF-8
Codec ID : S_TEXT/UTF8
Codec ID/Info : UTF-8 Plain Text
Duration : 1h 43mn
Bit rate : 55 bps
Count of elements : 1201
Stream size : 42.6 KiB (0%)
Language : English
Default : No
Forced : No

лог

raw [info]: 988x420p 1:1 @ 24000/1001 fps (cfr)
x264 [info]: using SAR=1/1
x264 [info]: using cpu capabilities: MMX2 SSE2Fast SSSE3 SSE4.2 AVX XOP FMA4 FMA3 LZCNT BMI1
x264 [info]: profile High, level 4.1
x264 [info]: frame I:1262 Avg QP:16.21 size: 84909
x264 [info]: frame P:31758 Avg QP:19.74 size: 30824
x264 [info]: frame B:123491 Avg QP:22.31 size: 10554
x264 [info]: consecutive B-frames: 1.6% 2.2% 8.2% 15.0% 14.5% 43.7% 6.4% 1.4% 1.6% 2.0% 1.0% 0.8% 0.8% 0.9%
x264 [info]: mb I I16..4: 3.9% 70.9% 25.3%
x264 [info]: mb P I16..4: 0.7% 11.9% 2.3% P16..4: 33.1% 29.5% 16.4% 0.0% 0.0% skip: 6.1%
x264 [info]: mb B I16..4: 0.0% 1.5% 0.3% B16..8: 42.9% 13.8% 4.9% direct: 6.9% skip:29.7% L0:45.0% L1:45.1% BI:10.0%
x264 [info]: 8x8 transform intra:79.3% inter:61.8%
x264 [info]: coded y,uvDC,uvAC intra: 90.5% 84.6% 54.3% inter: 36.4% 22.0% 2.7%
x264 [info]: i16 v,h,dc,p: 41% 14% 8% 37%
x264 [info]: i8 v,h,dc,ddl,ddr,vr,hd,vl,hu: 13% 7% 8% 9% 13% 13% 12% 11% 12%
x264 [info]: i4 v,h,dc,ddl,ddr,vr,hd,vl,hu: 36% 6% 4% 7% 10% 10% 9% 9% 9%
x264 [info]: i8c dc,h,v,p: 38% 24% 21% 17%
x264 [info]: Weighted P-Frames: Y:2.9% UV:0.9%
x264 [info]: ref P L0: 41.9% 12.7% 19.1% 6.5% 6.2% 3.8% 3.9% 2.0% 2.1% 1.6% 0.2% 0.0%
x264 [info]: ref B L0: 69.6% 13.1% 6.6% 3.5% 2.5% 2.1% 1.7% 0.7% 0.3%
x264 [info]: ref B L1: 92.2% 7.8%
x264 [info]: kb/s:2928.20
x264 [total]: encoded 156511 frames, 8.95 fps, 2928.20 kb/s

Скриншоты




[torrentc.info]_torrent-5346589.torrent
Торрент: Зарегистрирован ·  [ 2017-02-14 19:18 ] ·  f28e19b26bdc3fcfa37b63fdcfab741921075e3c

20 KB

Статус: проверено
Скачан: 0 раз
Размер: 3.89 GB
Оценка: 
(Голосов: 0)
Сказали спасибо: 0  Спасибо
Похожие темы
[Профиль]    [ЛС]
Показать сообщения:    
Ответить на тему

Текущее время: Сегодня 07:26

Часовой пояс: GMT + 7



Вы не можете начинать темы
Вы не можете отвечать на сообщения
Вы не можете редактировать свои сообщения
Вы не можете удалять свои сообщения
Вы не можете голосовать в опросах
Вы не можете прикреплять файлы к сообщениям
Вы можете скачивать файлы