Пираты Карибского моря: Проклятие Черной жемчужины / Pirates of the Caribbean: The Curse of the Black Pearl (Гор Вербински / Gore Verbinski) [2003, США, Приключенния, комедия, BDRip] AVO (Сергей Визгунов)

Ответить на тему
Статистика раздачи [Обновить пиров]
Размер:  2.2 GB   |    Зарегистрирован:  1 год 5 месяцев   |    Скачан:  0 раз

Полного источника не было: Никогда

 
   
 
 
 
Автор Сообщение

torrentc.info

Создавать темы 14-Фев-2017 19:18

[Цитировать]

Пираты Карибского моря: Проклятие Черной жемчужины / Pirates of the Caribbean: The Curse of the Black Pearl
«Over 3000 Islands of Paradise -- For Some it's A Blessing -- For Others... It's A Curse»
Страна: США
Жанр: Приключенния, комедия
Год выхода: 2003
Продолжительность: 02:23:14
Перевод: Авторский (одноголосый закадровый) Сергей Визгунов
Cубтитры: нет
Режиссер: Гор Вербински / Gore Verbinski
В ролях: Джонни Депп, Джеффри Раш, Орландо Блум, Кира Найтли, Джек Девенпорт, Кевин МакНэлли, Джонатан Прайс, Ли Аренберг, Макензи Крук, Дэвид Бэйли
Описание: 1. Карибское море, XVII век. Красавица Элизабет получает в подарок таинственный золотой медальон, который приносит ей и ее другу Уиллу Тернеру сплошные несчастья - ведь он проклят пиратами Карибского моря! Много лет полчища мертвых пиратов, обреченных на вечные муки, во главе со свирепым Капитаном Барбоссой, стерегли фантастические сокровища. Пропажа медальона из их сокровищницы вынуждает полуистлевших скелетов пойти штурмом на Порт Ройал и вернуть его вместе с заложницей - дочерью губернатора острова, Элизабет.
Отважный капитан Джек Воробей снаряжает команду, чтобы поквитаться с отвратительными разбойниками. Уилл с радостью присоединяется к команде, и они вместе отправляются навстречу приключениям, от которых в жилах стынет кровь, и мурашки бегут по телу...
2. Среди жителей ямайки XVIII века давно ходили неясные слухи о каком-то жутком проклятии, постигшем команду пиратского брига "Черная жемчужина". Еще одна глупая морская байка? Но однажды ночью к острову пристает корабль призрак с рваными парусами и с него высаживаются свирепые головорезы во главе с неистовым капитаном Барбоссой. Неся смерть и хаос, команда "Черной жемчужины" похищает дочь губернатора Элизабет Суонн. Ведь именно она владеет таинственным золотым медальоном, способным разрушить проклятие, из-за которого Барбосса и его корсары обратились в живых мертвецов: стоит на них упасть лунному свету, как они обретают облик скелетов-зомби! Чтобы спасти Элизабет, влюбленный в нее молодой кузнец Уилл Тернер объединяет свои силы с эксцентричным пиратом Джеком Воробьем и отправляется в погоню за "Черной жемчужиной"...
Доп. информация: Дорожка с С. Визгуновым синхронизирована и наложена ale_x2008 при помощи Sony Vegas и VirtualDubMod.
За оцифрованную с VHS дорожку благодарим - d_rocker.
P.S. 00:00:09 - 00:00:56; 00:01:06 - 00:01:58; 00:02:26 - 00:04:02; 00:27:46 - 00:28:28; 00:50:55 - 00:51:15 - вставки А. Гаврилова на пропущенные места.

Релиз группы:
Сэмпл: https://yadi.sk/i/en4Oy28N3ArHNA
Качество видео: BDRip от (Источник: Torrentc.org Judas Рriest /Blu-Ray Remux/1080p)
Формат файла: AVI
Видео: XviD, 720x304 (2.37:1), 23.976 fps, 1994 Kbps avg, 0.38 bit/pixel
Аудио: AC3 Dolby Digital, 48000Hz, 2/0 (L,R) ch (mono), 192.00 kbps avg

MediaInfo

Пираты Карибского моря. Проклятие Чёрной жемчужины - The Curse of the Black Pearl [by ale_x2008].avi
Format : AVI
Format/Info : Audio Video Interleave
Format profile : OpenDML
File size : 2.20 GiB
Duration : 2 h 23 min
Overall bit rate : 2 198 kb/s
Movie name : Piraty.Karibskogo.morya.Proklyate.Chyornoj.zhemchuzhiny.2003.DUAL.BDRip.XviD.AC3.-
Director : Orbit
Writing application : VirtualDubMod 1.5.10.2 (build 2540/release)
Copyright : ale_x2008 | Edich2
Comment : Torrentc.org
Video
ID : 0
Format : MPEG-4 Visual
Format profile : Advanced Simple@L5
Format settings, BVOP : 1
Format settings, QPel : No
Format settings, GMC : No warppoints
Format settings, Matrix : Custom
Codec ID : XVID
Codec ID/Hint : XviD
Duration : 2 h 23 min
Bit rate : 1 994 kb/s
Width : 720 pixels
Height : 304 pixels
Display aspect ratio : 2.35:1
Frame rate : 23.976 (23976/1000) FPS
Color space : YUV
Chroma subsampling : 4:2:0
Bit depth : 8 bits
Scan type : Progressive
Compression mode : Lossy
Bits/(Pixel*Frame) : 0.380
Stream size : 2.00 GiB (91%)
Writing library : XviD 1.2.1 (UTC 2008-12-04)
Audio
ID : 1
Format : AC-3
Format/Info : Audio Coding 3
Mode extension : CM (complete main)
Format settings, Endianness : Big
Codec ID : 2000
Duration : 2 h 23 min
Bit rate mode : Constant
Bit rate : 192 kb/s
Channel(s) : 2 channels
Channel positions : Front: L R
Sampling rate : 48.0 kHz
Frame rate : 31.250 FPS (1536 spf)
Compression mode : Lossy
Stream size : 197 MiB (9%)
Alignment : Split accross interleaves
Interleave, duration : 42 ms (1.00 video frame)
Interleave, preload duratio : 500 ms

Скриншоты




[torrentc.info]_torrent-5347030.torrent
Торрент: Зарегистрирован ·  [ 2017-02-14 19:18 ] ·  3daa9b9962f834769b189e979897a4396ad06f63

12 KB

Статус: проверено
Скачан: 0 раз
Размер: 2.2 GB
Оценка: 
(Голосов: 0)
Сказали спасибо: 0  Спасибо
Похожие темы
[Профиль]    [ЛС]
Показать сообщения:    
Ответить на тему

Текущее время: Сегодня 01:17

Часовой пояс: GMT + 7



Вы не можете начинать темы
Вы не можете отвечать на сообщения
Вы не можете редактировать свои сообщения
Вы не можете удалять свои сообщения
Вы не можете голосовать в опросах
Вы не можете прикреплять файлы к сообщениям
Вы можете скачивать файлы