Во имя мести / Out for a Kill (Майкл Обловиц / Michael Oblowitz) [2003, США, боевик, триллер, криминал, VHSRip] [FullScreen] MVO (Пирамида)

Ответить на тему
Статистика раздачи [Обновить пиров]
Размер:  1.37 GB   |    Зарегистрирован:  1 год 7 месяцев   |    Скачан:  0 раз

Полного источника не было: Никогда

 
   
 
 
 
Автор Сообщение

torrentc.info

Создавать темы 14-Фев-2017 19:18

[Цитировать]

Во имя мести / Out for a Kill

«For those who threatened him, framed him, imprisoned him, time is running out»


[FullScreen]

Страна: США
Жанр: боевик, триллер, криминал
Год выхода: 2003
Продолжительность: 01:26:18
Перевод: Профессиональный (многоголосый закадровый) Пирамида
Cубтитры: нет
Режиссер: Майкл Обловиц / Michael Oblowitz
В ролях: Стивен Сигал, Мишель Го, Кори Джонсон, Том Ву, Оззи Юе, Брюс Ванг, Чайк Чан, Хон Пинг Тэнг, Дейв Вон
Описание: Во время раскопок в Азии знаменитый археолог Роберт Бёрнс случайно узнаёт, что китайская мафия использует его находки для переправки наркотиков по всему миру. Наркобарон Вонг Дай, объединивший все банды в стране, приговаривает свидетелей их грязных махинаций к смерти, но когда от рук бандитов погибает жена Бёрнса, у могущественной теневой империи появляется неуловимый враг-одиночка. Бёрнс дает клятву до похорон супруги уничтожить всех, кто виновен в ее смерти. Теперь ему придется вспомнить о своем мрачном и загадочном прошлом, чтобы жестоко отомстить злодеям их же экстремальными методами.
Режиссер Майкл Обловиц ("Гори всё огнем", "Иностранец") снял зрелищный остросюжетный боевик в лучших традициях знаменитых хитов "Над законом", "В осаде 1, 2", "Во имя справедливости", подтвердив уникальный актерский и бойцовский талант неподражаемого Стивена Сигала ("Сквозные ранения", "В осаде-1, 2", "Патриот"). Этот ураганный фильм изобилует сокрушительными рукопашными схватками и впечатляющими поединками на мечах, которые поставил гениальный каскадер Кол МакКей, работавший на проектах "База" и "Обсуждению не подлежит".
Доп. информация: Оцифровка лицензионной VHS (личный архив) и получение VHSRip alenavova
Эксклюзив для Torrentc.org. При размещении данного релиза на других сайтах ссылка на автора alenavova обязательна.

Релиз группы:
Сэмпл: https://yadi.sk/i/VerjASYgmSz5C
Качество видео: VHSRip
Формат файла: AVI
Видео: 704x528 (1.33:1), 25 fps, XviD build 73 ~2066 kbps avg, 0.22 bit/pixel
Аудио: 48 kHz, AC3 Dolby Digital, 2/0 (L,R) ch, ~192 kbps

MediaInfo

Во имя мести - Out for a Kill [by alenavova].avi
Format : AVI
Format/Info : Audio Video Interleave
File size : 1.37 GiB
Duration : 1h 26mn
Overall bit rate : 2 268 Kbps
Movie name : Во имя мести - Out for a Kill [by alenavova]
Director : by alenavova
Writing application : VirtualDubMod 1.5.10.3 | www.virtualdub-fr.org || (build 2550/release)
Copyright : Edich2
Comment : Torrentc.org
Video
ID : 0
Format : MPEG-4 Visual
Format profile : Advanced Simple@L5
Format settings, BVOP : 1
Format settings, QPel : No
Format settings, GMC : No warppoints
Format settings, Matrix : Custom
Codec ID : XVID
Codec ID/Hint : XviD
Duration : 1h 26mn
Bit rate : 2 067 Kbps
Width : 704 pixels
Height : 528 pixels
Display aspect ratio : 4:3
Frame rate : 25.000 fps
Color space : YUV
Chroma subsampling : 4:2:0
Bit depth : 8 bits
Scan type : Progressive
Compression mode : Lossy
Bits/(Pixel*Frame) : 0.222
Stream size : 1.25 GiB (91%)
Writing library : XviD 73
Audio
ID : 1
Format : AC-3
Format/Info : Audio Coding 3
Mode extension : CM (complete main)
Format settings, Endianness : Big
Codec ID : 2000
Duration : 1h 26mn
Bit rate mode : Constant
Bit rate : 192 Kbps
Channel(s) : 2 channels
Channel positions : Front: L R
Sampling rate : 48.0 KHz
Bit depth : 16 bits
Compression mode : Lossy
Stream size : 119 MiB (8%)
Alignment : Split accross interleaves
Interleave, duration : 40 ms (1.00 video frame)
Interleave, preload duration : 500 ms

Скриншоты



[torrentc.info]_torrent-5138597.torrent
Торрент: Зарегистрирован ·  [ 2017-02-14 19:18 ] ·  c684019fd0bb95de7ca7eb5a2ca22f887633a436

14 KB

Статус: проверено
Скачан: 0 раз
Размер: 1.37 GB
Оценка: 
(Голосов: 0)
Сказали спасибо: 0  Спасибо
Похожие темы
[Профиль]    [ЛС]
Показать сообщения:    
Ответить на тему

Текущее время: Сегодня 13:54

Часовой пояс: GMT + 7



Вы не можете начинать темы
Вы не можете отвечать на сообщения
Вы не можете редактировать свои сообщения
Вы не можете удалять свои сообщения
Вы не можете голосовать в опросах
Вы не можете прикреплять файлы к сообщениям
Вы можете скачивать файлы