Матрица 3: Революция / The Matrix Revolutions (Энди Вачовски / Andy Wachowski, Ларри Вачовски / Larry Wachowski) [2003, США, Австралия, фантастика, боевик, DVDRip] [FullScreen] Dub (Премьер)

Ответить на тему
Статистика раздачи [Обновить пиров]
Размер:  2.18 GB   |    Зарегистрирован:  1 год 5 месяцев   |    Скачан:  0 раз

Полного источника не было: Никогда

 
   
 
 
 
Автор Сообщение

torrentc.info

Создавать темы 14-Фев-2017 19:18

[Цитировать]

Матрица 3: Революция / The Matrix Revolutions

«Все, что имеет начало, имеет и конец»

[Full Screen]
Страна: США, Австралия
Жанр: фантастика, боевик
Год выхода: 2003
Продолжительность: 02:09:14
Перевод: Профессиональный (дублированный) Премьер / CCE
Cубтитры: нет
Режиссер: Энди Вачовски / Andy Wachowski, Ларри Вачовски / Larry Wachowski
В ролях: Киану Ривз / Keanu Reeves, Кэрри-Энн Мосс / Carrie-Anne Moss, Хьюго Уивинг / Hugo Weaving, Лоуренс Фишберн / Laurence Fishburne, Моника Белуччи / Monica Bellucci, Гельмут Бакайтис / Helmut Bakaitis
Описание: "Невероятное достижение в жанре "экшн". Энди и Ларри Вачовски с блеском завершили свою феноменальную трилогию", - Роджер Иберт, "Chicago Sun-Times".
Нео. Морфеус. Тринити. Наших любимых героев и их союзников ждет эпическая победа или... полное уничтожение. Великая война людей и машин подошла к своей заключительной и самой кровавой главе! Начинается третья и последняя часть грандиозной трилогии Матрица! Единственной надежде человечества, избранному Нео, предстоит исполнить свою миссию. Отважного героя ждет путешествие туда, куда не ступала нога человека - в самое сердце Города Машин, и решающая схватка с главным врагом, - предательской программой, вездесущим агентом Смитом.
Создателям трилогии братьям Вачовски и продюсеру Джоэлу Силверу удалось немыслимое: не только соответствовать высочайшим стандартам первых двух картин, но и превзойти самые смелые ожидания поклонников легендарной саги - по зрелищности и изобретательности Матрица: Революция не знает себе равных!
Все, что имеет начало, имеет и конец...
Революция началась!
Доп. информация: Просьба отозваться кто предоставил ДВДрип.
Релиз группы:
Сэмпл: https://yadi.sk/i/vKetcQKM3BFsdH
Качество видео: DVDRip
Формат файла: AVI
Видео: 640x480 (1.33:1), 23.976 fps, XviD build 73 ~2219 kbps avg, 0.30 bit/pixel
Аудио: 48 kHz, AC3 Dolby Digital, 2/0 (L,R) ch, ~192 kbps

MediaInfo

Матрица Революция 2,19 ГБ\Матрица 3 Революция - The Matrix Revolutions [by Edich2].avi
Format : AVI
Format/Info : Audio Video Interleave
Format profile : OpenDML
File size : 2.18 GiB
Duration : 2 h 9 min
Overall bit rate : 2 418 kb/s
Movie name : Матрица 3 Революция - The Matrix Revolutions [by Edich2]
Director : by Edich2
Comment : Torrentc.org
Video
ID : 0
Format : MPEG-4 Visual
Format profile : Advanced Simple@L5
Format settings, BVOP : 1
Format settings, QPel : No
Format settings, GMC : No warppoints
Format settings, Matrix : Default (MPEG)
Codec ID : XVID
Codec ID/Hint : XviD
Duration : 2 h 9 min
Bit rate : 2 214 kb/s
Width : 640 pixels
Height : 480 pixels
Display aspect ratio : 4:3
Frame rate : 23.976 (23976/1000) FPS
Color space : YUV
Chroma subsampling : 4:2:0
Bit depth : 8 bits
Scan type : Progressive
Compression mode : Lossy
Bits/(Pixel*Frame) : 0.301
Stream size : 2.00 GiB (92%)
Writing library : XviD 73
Audio
ID : 1
Format : AC-3
Format/Info : Audio Coding 3
Mode extension : CM (complete main)
Format settings, Endianness : Big
Codec ID : 2000
Duration : 2 h 9 min
Bit rate mode : Constant
Bit rate : 192 kb/s
Channel(s) : 2 channels
Channel positions : Front: L R
Sampling rate : 48.0 kHz
Frame rate : 31.250 FPS (1536 spf)
Compression mode : Lossy
Stream size : 177 MiB (8%)
Alignment : Aligned on interleaves
Interleave, duration : 42 ms (1.00 video frame)
Interleave, preload duratio : 512 ms

Скриншоты


ТОРРЕНТ ПЕРЕЗАЛИТ.
ЗАМЕНА VHS НА DVDRip.


[torrentc.info]_torrent-5153769.torrent
Торрент: Зарегистрирован ·  [ 2017-02-14 19:18 ] ·  d9d0f47f01f353935ca31765ef5b2ec602e70f9c

11 KB

Статус: проверено
Скачан: 0 раз
Размер: 2.18 GB
Оценка: 
(Голосов: 0)
Сказали спасибо: 0  Спасибо
Похожие темы
[Профиль]    [ЛС]
Показать сообщения:    
Ответить на тему

Текущее время: Сегодня 01:05

Часовой пояс: GMT + 7



Вы не можете начинать темы
Вы не можете отвечать на сообщения
Вы не можете редактировать свои сообщения
Вы не можете удалять свои сообщения
Вы не можете голосовать в опросах
Вы не можете прикреплять файлы к сообщениям
Вы можете скачивать файлы