Футбол по понедельникам / Погром в понедельник вечером / Monday Night Mayhem (Эрнест Р. Дикерсон / Ernest R. Dickerson) [2002, США, драма, спорт, DVDRip] VO

Ответить на тему
Статистика раздачи [Обновить пиров]
Размер:  680 MB   |    Зарегистрирован:  1 год 7 месяцев   |    Скачан:  0 раз

Полного источника не было: Никогда

 
   
 
 
 
Автор Сообщение

torrentc.info

Создавать темы 14-Фев-2017 19:18

[Цитировать]

Футбол по понедельникам / Погром в понедельник вечером / Monday Night Mayhem
"Там больше действия было в кабине, чем на поле"
Страна: США
Жанр: драма, спорт
Год выхода: 2002
Продолжительность: 01:38:07
Перевод: Одноголосый закадровый
Cубтитры: нет
Режиссер: Эрнест Р. Дикерсон / Ernest R. Dickerson
В ролях: Джон Туртурро, Джон Херд, Кевин Андерсон, Николас Туртурро, Брэд Бейер, Патти ЛюПон, Джей Томас, Эли Уоллах, Зак Орт, Шулер Хенсли
Описание: Телекомпания Эй Би Си приобретает спортивный канал с намерением сделать его необыкновенно популярным, изменив традиционные способы подачи информации. Ставка делается на футбол, и нововведением становится тот факт, что транслируемый в прямом эфире матч комментируют одновременно три спортивных журналиста. Один из них — самый популярный ведущий Говард Косуэлл. Одни болельщики его обожают, другие ненавидят, нет только равнодушных. Теперь, когда комментаторов трое, у передачи еще более высокий рейтинг. Люди устремляются к экранам телевизоров не только для того, чтобы насладиться игрой, но и чтобы послушать перепалку ведущих…
Доп. информация: За фильм спасибо SuperDVD01
Релиз группы:
Сэмпл: https://yadi.sk/i/tvQRICiq3BFzdc
Качество видео: DVDRip
Формат файла: AVI
Видео: 512x384 (1.33:1), 23.976 fps, XviD MPEG-4 ~847 kbps avg, 0.18 bit/pixel
Аудио: 44.100 kHz, MPEG Layer 3, 2 ch, ~112 kbps avg

MediaInfo

Футбол по понедельникам - Monday Night Mayhem [by Edich2].avi
Format : AVI
Format/Info : Audio Video Interleave
File size : 680 MiB
Duration : 1 h 38 min
Overall bit rate : 969 kb/s
Movie name : Футбол по понедельникам - Monday Night Mayhem [by Edich2]
Director : by Edich2
Copyright : SUPERDVD01
Comment : Torrentc.org
Video
ID : 0
Format : MPEG-4 Visual
Format settings, BVOP : No
Format settings, QPel : No
Format settings, GMC : No warppoints
Format settings, Matrix : Default (H.263)
Codec ID : XVID
Codec ID/Hint : XviD
Duration : 1 h 38 min
Bit rate : 848 kb/s
Width : 512 pixels
Height : 384 pixels
Display aspect ratio : 4:3
Frame rate : 23.976 (23976/1000) FPS
Color space : YUV
Chroma subsampling : 4:2:0
Bit depth : 8 bits
Scan type : Progressive
Compression mode : Lossy
Bits/(Pixel*Frame) : 0.180
Stream size : 595 MiB (87%)
Audio
ID : 1
Format : MPEG Audio
Format version : Version 1
Format profile : Layer 3
Mode : Joint stereo
Mode extension : MS Stereo
Codec ID : 55
Codec ID/Hint : MP3
Duration : 1 h 38 min
Bit rate mode : Constant
Bit rate : 112 kb/s
Channel(s) : 2 channels
Sampling rate : 44.1 kHz
Compression mode : Lossy
Stream size : 78.4 MiB (12%)
Alignment : Split accross interleaves
Interleave, duration : 42 ms (1.00 video frame)
Interleave, preload duratio : 463 ms

Скриншоты




[torrentc.info]_torrent-5172531.torrent
Торрент: Зарегистрирован ·  [ 2017-02-14 19:18 ] ·  9d3fb57fd72bcdfa3659b9849929fb321393cdda

14 KB

Статус: проверено
Скачан: 0 раз
Размер: 680 MB
Оценка: 
(Голосов: 0)
Сказали спасибо: 0  Спасибо
Похожие темы
[Профиль]    [ЛС]
Показать сообщения:    
Ответить на тему

Текущее время: Сегодня 13:03

Часовой пояс: GMT + 7



Вы не можете начинать темы
Вы не можете отвечать на сообщения
Вы не можете редактировать свои сообщения
Вы не можете удалять свои сообщения
Вы не можете голосовать в опросах
Вы не можете прикреплять файлы к сообщениям
Вы можете скачивать файлы