Тайный план / Hidden Agenda (Марк С. Гренье / Marc S. Grenier) [2001, Канада, боевик, триллер, детектив, DVDRip] AVO (Сергей Визгунов) + AVO (Юрий Сербин)

Ответить на тему
Статистика раздачи [Обновить пиров]
Размер:  1.49 GB   |    Зарегистрирован:  1 год 9 месяцев   |    Скачан:  0 раз

Полного источника не было: Никогда

 
   
 
 
 
Автор Сообщение

torrentc.info

Создавать темы 14-Фев-2017 19:18

[Цитировать]

Тайный план / Hidden Agenda
«A high octane thriller... Enemy of the State meets Exit Wounds»
Страна: Канада
Жанр: боевик, триллер, детектив
Год выхода: 2001
Продолжительность: 01:30:46
Перевод: Авторский (одноголосый закадровый) Сергей Визгунов
Перевод 2: Авторский (одноголосый закадровый) Юрий Сербин
Cубтитры: нет
Режиссер: Марк С. Гренье / Marc S. Grenier
В ролях: Дольф Лундгрен /Dolph Lundgren/, Максим Рой /Maxim Roy/, Бриджит Пакет /Brigitte Paquette/, Тед Уиттолл /Ted Whittall/, Серж Уд /Serge Houde/, Алан Фосетт /Alan Fawcett/, Фрэнсис МакКарти /Francis McCarthy/, Хэрри Стандьвский /Harry Stanjofski/, Джерри Де Вийе-младший /Jerry De Villiers, Jr./, Иванн Тибодо /Yvann Thibaudeau/
Описание: Фильм открывается погоней за человеком в светлом костюме и чемоданом в руках. Вот уже его нагоняют агента ФБР, но тут он "разчетверяется" в четырех двойников, одетых точно, как он, и в темных очках. Одного поймали, назвав его Прайсом, но тот снял парик и очки и представился как спецагент Сердженссон (Дольф Лунгрен). Другим агентам показывают фотографию и старший группы спрашивают, был ли человек на фотографии похож на Винсента Моретти. Назвав их идиотами, он спрашивает везде ли они были рядом с ним. Ответ - да, но кроме туалета, где как раз этот Морретти и переоделся. Винсент Моретти - основной свидетель в деле наркокартеля "Борис". Вдруг подъзжает машина, из нее вылезают двое мужчин, и Сердженссона отпускают по приказу, седого, Пауэлла из отдела МБ. Моретти был в этом деле "кротом" и с его помощью Прайс надеялся поймать рыбку покрупнее. Прайс работает под "метра" в ресторане, который посстоянно пасут два человека. Когда Прайс уже закрывал ресторан, в него зашел Санни, его коллега, прибывший из Сиэттла. Санни предупреждает Прайса, что шеф, которого он так опозорил, очень зол. Далее и суд основного жюри, где тайные свидетели должны дать показания. Одна из свидетельниц просится в туалет, а после фразы: "Мистер Буччи, начнем с показаний по делу "Икар", снайпер с крыши другого дома всаживает ему пулю в сердце. После этого в одиночку берет штурмом помещения суда, расстреливая всех охрнников и свидетелей. Одного из агентов он почему-то оставил в живых, предварительно обыскав. Когда все живые агенты пришли в себя, в туалете женщины уже не было. Предположительно, это была работа "чистильщика". На следующий день а Прайсу приходит Пол Элкерт. Его не убили, потому что не нашли то, что искали - ключ от депозитного сейфа, а в сейфе лежат деньги, которые Элкерт украл у Йоськи. За помощь Элкерт обещает заплатить, и Прайс запрашивает 5 миллионов долларов плюс половину денег, что украл Элкерт, на благотворительные цели по выбору Прайса.
За Элкертом ведут охоту группа "Икар", ФБР, чистильщик и мафия. Элкерт соглашается, но просит 48 часов, чтобы собрать деньги, а Прайс гарантирует, что за это время его не убъют. После такой хитроумной завязки начинается обычная "мочиловка". Лунгрен - есть Лундгрен. Вместе со своей группой, состоящей из мужчин и одной женщины, он принимается за работу. Какого рода будет работа, догадаться нетрудно. Если еще остались поклонники Лундгрена, они с удовольствием посмотрят очередной боевик класс "Б". Погони, драки, перестрелки, взрывы, любовь и расхожие ходы сюжета, когда все раскрывается только в конце. Интересно, что в такие фильмы стали закладывать больше денег, и смотрятся они вполне приемлемо. (Иванов М.)
Доп. информация: Дорожка с С. Визгуновым из личной коллекции VHS ale_x2008. Синхронизирована, ремастерирована и наложена ale_x2008 при помощи Adobe Audition, Sony Vegas и VirtualDubMod.
Благодарю за оцифровку звуковой дорожки - cinemasonar
За дорожку с Ю. Сербиным благодарим - d_rocker. Синхронизирована и ремастерирована ale_x2008 при помощи Sony Vegas.

Релиз группы:
Сэмпл: https://yadi.sk/i/__XCiYH33BNCd9
Качество видео: DVDRip
Формат файла: AVI
Видео: 704x528 (1.33:1), 25 fps, XviD build 73 ~1955 kbps avg, 0.21 bit/pixel
Аудио: 48 kHz, AC3 Dolby Digital, 2/0 (L,R) ch (stereo), ~192 kbps
Аудио 2: 48 kHz, AC3 Dolby Digital, 2/0 (L,R) ch (stereo), ~192 kbps

MediaInfo

Тайный план - Hidden Agenda [by ale_x2008].avi
Format : AVI
Format/Info : Audio Video Interleave
File size : 1.49 GiB
Duration : 1 h 30 min
Overall bit rate : 2 354 kb/s
Movie name : Тайный план - Hidden Agenda [by ale_x2008]
Director : ale_x2008
Genre : Action
Writing application : VirtualDubMod 1.5.10.2 (build 2540/release)
Original source form/Name : Movie
Copyright : Edich2
Comment : Torrentc.org
Video
ID : 0
Format : MPEG-4 Visual
Format profile : Advanced Simple@L5
Format settings, BVOP : 1
Format settings, QPel : No
Format settings, GMC : No warppoints
Format settings, Matrix : Default (MPEG)
Codec ID : XVID
Codec ID/Hint : XviD
Duration : 1 h 30 min
Bit rate : 1 956 kb/s
Width : 704 pixels
Height : 528 pixels
Display aspect ratio : 4:3
Frame rate : 25.000 FPS
Color space : YUV
Chroma subsampling : 4:2:0
Bit depth : 8 bits
Scan type : Progressive
Compression mode : Lossy
Bits/(Pixel*Frame) : 0.210
Stream size : 1.24 GiB (83%)
Writing library : XviD 73
Audio #1
ID : 1
Format : AC-3
Format/Info : Audio Coding 3
Mode extension : CM (complete main)
Format settings, Endianness : Big
Codec ID : 2000
Duration : 1 h 30 min
Bit rate mode : Constant
Bit rate : 192 kb/s
Channel(s) : 2 channels
Channel positions : Front: L R
Sampling rate : 48.0 kHz
Frame rate : 31.250 FPS (1536 spf)
Compression mode : Lossy
Stream size : 125 MiB (8%)
Alignment : Split accross interleaves
Interleave, duration : 40 ms (1.00 video frame)
Interleave, preload duratio : 500 ms
Audio #2
ID : 2
Format : AC-3
Format/Info : Audio Coding 3
Mode extension : CM (complete main)
Format settings, Endianness : Big
Codec ID : 2000
Duration : 1 h 30 min
Bit rate mode : Constant
Bit rate : 192 kb/s
Channel(s) : 2 channels
Channel positions : Front: L R
Sampling rate : 48.0 kHz
Frame rate : 31.250 FPS (1536 spf)
Compression mode : Lossy
Stream size : 125 MiB (8%)
Alignment : Split accross interleaves
Interleave, duration : 40 ms (1.00 video frame)
Interleave, preload duratio : 500 ms

Скриншоты




[torrentc.info]_torrent-5348284.torrent
Торрент: Зарегистрирован ·  [ 2017-02-14 19:18 ] ·  81339f55d90036cb59eef5f9a17a7afb45f4cc18

15 KB

Статус: проверено
Скачан: 0 раз
Размер: 1.49 GB
Оценка: 
(Голосов: 0)
Сказали спасибо: 0  Спасибо
Похожие темы
[Профиль]    [ЛС]
Показать сообщения:    
Ответить на тему

Текущее время: Сегодня 07:52

Часовой пояс: GMT + 7



Вы не можете начинать темы
Вы не можете отвечать на сообщения
Вы не можете редактировать свои сообщения
Вы не можете удалять свои сообщения
Вы не можете голосовать в опросах
Вы не можете прикреплять файлы к сообщениям
Вы можете скачивать файлы