Убийца на лестнице / A Killer Upstairs / Killer Instinct (Дуглас Джексон / Douglas Jackson) [2005, Канада, Триллер, DVDRip] MVO

Ответить на тему
Статистика раздачи [Обновить пиров]
Размер:  1.37 GB   |    Зарегистрирован:  1 год 5 месяцев   |    Скачан:  0 раз

Полного источника не было: Никогда

 
   
 
 
 
Автор Сообщение

torrentc.info

Создавать темы 14-Фев-2017 19:18

[Цитировать]

Убийца на лестнице / A Killer Upstairs / Killer Instinct
«Смерть ближе, чем ты думаешь...»
Страна: Канада
Жанр: Триллер
Год выхода: 2005
Продолжительность: 01:30:49
Перевод: Профессиональный (многоголосый закадровый)
Cубтитры: нет
Режиссер: Дуглас Джексон / Douglas Jackson
В ролях: Трэйси Нелсон, Брюс Бокслайтнер, Линден Эшби, Лоррэйн Энселл, Салли Клелфорд, Кристофер Жако, Бретт Келли, Джанет Лэйн
Описание: Когда бывшая супермодель, жена богатого бизнесмена Вивьен Джеймисон найдена убитой, улики указывают на выпускника школы, 17-летнего Майкла Нолина (Кристофер Жако - "Вирус любви", "Восставший из ада 8"). Но его мать Сандра (Трэйси Нельсон - "Без гроша в Беверли-Хиллз", "Ее идеальный муж") не верит неопровержимым фактам и начинает собственное расследование. Проникнув в чужие тайны, она понимает, что убийца всегда был в шаге от нее!..
Доп. информация: За Источник: Torrentc.org ДВД5 большое спасибо SUPERDVD01
Релиз группы:
Сэмпл: https://yadi.sk/i/A_qQZbQ63DbmcM
Качество видео: DVDRip
Формат файла: AVI
Видео: 704x400 (1.76:1), 25 fps, XviD build 73 ~1953 kbps avg, 0.28 bit/pixel
Аудио: 48 kHz, AC3 Dolby Digital, 2/0 (L,R) ch, ~192 kbps

MediaInfo

Убийца на лестнице - A Killer Upstairs [by Edich2].avi
Format : AVI
Format/Info : Audio Video Interleave
File size : 1.37 GiB
Duration : 1 h 30 min
Overall bit rate : 2 156 kb/s
Movie name : Убийца на лестнице - A Killer Upstairs [by Edich2]
Director : by Edich2
Writing application : VirtualDubMod 1.5.10.2 (build 2540/release)
Comment : Torrentc.org
Video
ID : 0
Format : MPEG-4 Visual
Format profile : Advanced Simple@L5
Format settings, BVOP : 1
Format settings, QPel : No
Format settings, GMC : No warppoints
Format settings, Matrix : Custom
Codec ID : XVID
Codec ID/Hint : XviD
Duration : 1 h 30 min
Bit rate : 1 954 kb/s
Width : 704 pixels
Height : 400 pixels
Display aspect ratio : 16:9
Frame rate : 25.000 FPS
Color space : YUV
Chroma subsampling : 4:2:0
Bit depth : 8 bits
Scan type : Progressive
Compression mode : Lossy
Bits/(Pixel*Frame) : 0.278
Stream size : 1.24 GiB (91%)
Writing library : XviD 73
Audio
ID : 1
Format : AC-3
Format/Info : Audio Coding 3
Mode extension : CM (complete main)
Format settings, Endianness : Big
Codec ID : 2000
Duration : 1 h 30 min
Bit rate mode : Constant
Bit rate : 192 kb/s
Channel(s) : 2 channels
Channel positions : Front: L R
Sampling rate : 48.0 kHz
Frame rate : 31.250 FPS (1536 spf)
Bit depth : 16 bits
Compression mode : Lossy
Delay relative to video : 12 ms
Stream size : 125 MiB (9%)
Alignment : Split accross interleaves
Interleave, duration : 40 ms (1.00 video frame)
Interleave, preload duratio : 500 ms

Скриншоты




[torrentc.info]_torrent-5354501.torrent
Торрент: Зарегистрирован ·  [ 2017-02-14 19:18 ] ·  3bc45e08702a454f0d51180011f4b8e762e0fefd

14 KB

Статус: проверено
Скачан: 0 раз
Размер: 1.37 GB
Оценка: 
(Голосов: 0)
Сказали спасибо: 0  Спасибо
Похожие темы
[Профиль]    [ЛС]
Показать сообщения:    
Ответить на тему

Текущее время: Сегодня 00:56

Часовой пояс: GMT + 7



Вы не можете начинать темы
Вы не можете отвечать на сообщения
Вы не можете редактировать свои сообщения
Вы не можете удалять свои сообщения
Вы не можете голосовать в опросах
Вы не можете прикреплять файлы к сообщениям
Вы можете скачивать файлы