Остин Пауэрс: Голдмембер / Austin Powers in Goldmember (Джей Роуч / Jay Roach) [2002, Германия, США, боевик, комедия, приключения, криминал, VHSRip] [Full Screen] Dub

Ответить на тему
Статистика раздачи [Обновить пиров]
Размер:  1.37 GB   |    Зарегистрирован:  1 год 9 месяцев   |    Скачан:  0 раз

Полного источника не было: Никогда

 
   
 
 
 
Автор Сообщение

torrentc.info

Создавать темы 14-Фев-2017 19:18

[Цитировать]

Остин Пауэрс: Голдмембер / Austin Powers in Goldmember
«A New Breed of Evil»
[Full Screen]
Страна: Германия, США
Жанр: боевик, комедия, приключения, криминал
Год выхода: 2002
Продолжительность: 01:30:50
Перевод: Профессиональный (дублированный)
Cубтитры: нет
Режиссер: Джей Роуч / Jay Roach
В ролях: Майк Майерс, Биоунси Ноулс, Майкл Кейн, Майкл Йорк, Сет Грин, Минди Стерлинг, Верн Тройер, Том Круз, Гвинет Пэлтроу, Кэвин Спейси, Дэнни ДеВито, Стивен Спилберг, Куинси Джоунс, Бритни Спирс, Натан Лэйн, Оззи Осборн, Шэрон Осборн, Келли Осборн, Джек Осборн, Джон Траволта, Роб Лоу
Описание: Он вновь нашел свое моджо, бэйби! И теперь Остин Пауэрс (Майк Майерс - "Шрек") блистает в новой, разухабистой, приключенческой комедии высшей пробы!
Неприятности начинаются, когда Доктор Зло и Мини-Мы сбегают из тюрьмы. Объединив усилия с маньяком по имени Голдмембер, они похищают отца Остина, опытного шпиона Найджела Пауэрса (обладатель премии "Оскар" Майкл Кейн), чтобы осуществить свой подлый план по захвату мирового господства. Вы не успеете сказать "Тряхни попкой!", как Остин успеет перенестись в 1975 год, взять в напарницы сексуальную малышку Клеопатру (Биоунси Ноулс, участница группы "Destiny's Child") и помешать злобным проискам Доктора Зло и Голдмембера.
Доп. информация: Оцифровка лицензионной VHS (личный архив) и получение VHSRip alenavova
Эксклюзив для Torrentc.org. При размещении данного релиза на других сайтах ссылка на автора alenavova обязательна.

Релиз группы:
Сэмпл: https://yadi.sk/i/EmFnuj_Y3E3EhX
Качество видео: VHSRip
Формат файла: AVI
Видео: 704x528 (1.33:1), 25 fps, XviD build 73 ~1952 kbps avg, 0.21 bit/pixel
Аудио: 48 kHz, AC3 Dolby Digital, 2/0 (L,R) ch, ~192 kbps

MediaInfo

Остин Пауэрс-Голдмембер - Austin Powers in Goldmember [by alenavova].avi
Format : AVI
Format/Info : Audio Video Interleave
File size : 1.37 GiB
Duration : 1 h 30 min
Overall bit rate : 2 155 kb/s
Movie name : Остин Пауэрс-Голдмембер - Austin Powers in Goldmember [by alenavova]
Director : by alenavova
Writing application : VirtualDubMod 1.5.10.3 | www.virtualdub-fr.org || (build 2550/release)
Copyright : Edich2
Comment : Torrentc.org
Video
ID : 0
Format : MPEG-4 Visual
Format profile : Advanced Simple@L5
Format settings, BVOP : 1
Format settings, QPel : No
Format settings, GMC : No warppoints
Format settings, Matrix : Custom
Codec ID : XVID
Codec ID/Hint : XviD
Duration : 1 h 30 min
Bit rate : 1 953 kb/s
Width : 704 pixels
Height : 528 pixels
Display aspect ratio : 4:3
Frame rate : 25.000 FPS
Color space : YUV
Chroma subsampling : 4:2:0
Bit depth : 8 bits
Scan type : Progressive
Compression mode : Lossy
Bits/(Pixel*Frame) : 0.210
Stream size : 1.24 GiB (91%)
Writing library : XviD 73
Audio
ID : 1
Format : AC-3
Format/Info : Audio Coding 3
Mode extension : CM (complete main)
Format settings, Endianness : Big
Codec ID : 2000
Duration : 1 h 30 min
Bit rate mode : Constant
Bit rate : 192 kb/s
Channel(s) : 2 channels
Channel positions : Front: L R
Sampling rate : 48.0 kHz
Frame rate : 31.250 FPS (1536 spf)
Bit depth : 16 bits
Compression mode : Lossy
Stream size : 125 MiB (9%)
Alignment : Split accross interleaves
Interleave, duration : 40 ms (1.00 video frame)
Interleave, preload duratio : 500 ms

Скриншоты





[torrentc.info]_torrent-5357079.torrent
Торрент: Зарегистрирован ·  [ 2017-02-14 19:18 ] ·  3782289554f77f4e9f83cba7b7445ee6c813d844

14 KB

Статус: проверено
Скачан: 0 раз
Размер: 1.37 GB
Оценка: 
(Голосов: 0)
Сказали спасибо: 0  Спасибо
Похожие темы
[Профиль]    [ЛС]
Показать сообщения:    
Ответить на тему

Текущее время: Сегодня 09:26

Часовой пояс: GMT + 7



Вы не можете начинать темы
Вы не можете отвечать на сообщения
Вы не можете редактировать свои сообщения
Вы не можете удалять свои сообщения
Вы не можете голосовать в опросах
Вы не можете прикреплять файлы к сообщениям
Вы можете скачивать файлы