В конуре / In the Doghouse (Джордж Миллер / George Miller) [1998, Канада, Комедия, семейный, DVDRip] MVO (Премьер)

Ответить на тему
Статистика раздачи [Обновить пиров]
Размер:  700 MB   |    Зарегистрирован:  1 год 5 месяцев   |    Скачан:  0 раз

Полного источника не было: Никогда

 
   
 
 
 
Автор Сообщение

torrentc.info

Создавать темы 14-Фев-2017 13:49

[Цитировать]

В конуре / In the Doghouse
Страна: Канада
Жанр: Комедия, семейный
Год выпуска: 1998
Продолжительность: 01:23:09
Перевод: Профессиональный (многоголосый закадровый) Премьер ??
Cубтитры: нет
Режиссер: Джордж Миллер / George Miller
В ролях: Мэтт Фрюэр, Тревор Морган, Риа Пёрлмен, Брайан Маркинсон, Тони Розато, Седрик Цебаллос, Эллисон Хоссак, Бритт МакКиллип, Кевин МакНалти
Описание: В семье Вагнеров дела шли наилучшим образом. До тех пор, пока главу семьи Скотта не выгнали с работы. Произошло это потому, что пейджер Скотта с очень важным сообщением попал в зубы к домашнему любимцу — большому, но бестолковому псу Бенни. Откуда не возьмись на горизонте безработного Скотта появляется госпожа — Удача в лице энергичной и неунывающей Филлис Маркович — агента, подбирающего зверей для съемок в рекламе. Филлис убеждена в том, что Бенни — потенциальная кинозвезда. Неожиданно для всех на Бенни начинают сыпаться предложения о съемках, и он начинает зарабатывать денег больше, чем вся семья Вагнеров вместе взятая. Рекламный ролик с участием красавца-пса замечают голливудские продюсеры и предлагают Бенни контракт на участие в картине с миллионным бюджетом. Но вот накануне съемок Бенни похищают. Теперь Скотт и вся его семья должны, во что бы то ни стало найти собаку и отомстить злодеям.
Доп. информация: Релиз Кинозал.
Сэмпл: https://yadi.sk/i/NAm_XO1EtYKXR
Качество видео: DVDRip
Формат видео: AVI
Видео: 624x472 (1.32:1), 25 fps, XviD build 73 ~1038 kbps avg, 0.14 bit/pixel
Аудио: 48 kHz, MPEG Layer 3, 2 ch, ~128.00 kbps avg

MediaInfo

В.конуре.In.the.Doghouse.1998.DVDRip.avi
Format : AVI
Format/Info : Audio Video Interleave
File size : 700 MiB
Duration : 1h 23mn
Overall bit rate : 1 177 Kbps
Writing application : VirtualDubMod 1.5.10.3 | www.virtualdub-fr.org || (build 2550/release)
Writing library : VirtualDubMod build 2550/release
Video
ID : 0
Format : MPEG-4 Visual
Format profile : Advanced Simple@L5
Format settings, BVOP : 2
Format settings, QPel : No
Format settings, GMC : No warppoints
Format settings, Matrix : Custom
Codec ID : XVID
Codec ID/Hint : XviD
Duration : 1h 23mn
Bit rate : 1 039 Kbps
Width : 624 pixels
Height : 472 pixels
Display aspect ratio : 4:3
Frame rate : 25.000 fps
Color space : YUV
Chroma subsampling : 4:2:0
Bit depth : 8 bits
Scan type : Progressive
Compression mode : Lossy
Bits/(Pixel*Frame) : 0.141
Stream size : 618 MiB (88%)
Writing library : XviD 73
Audio
ID : 1
Format : MPEG Audio
Format version : Version 1
Format profile : Layer 3
Codec ID : 55
Codec ID/Hint : MP3
Duration : 1h 23mn
Bit rate mode : Constant
Bit rate : 128 Kbps
Channel(s) : 2 channels
Sampling rate : 48.0 KHz
Compression mode : Lossy
Stream size : 76.1 MiB (11%)
Alignment : Aligned on interleaves
Interleave, duration : 40 ms (1.00 video frame)
Interleave, preload duratio : 504 ms
Writing library : LAME3.99r
Encoding settings : -m s -V 4 -q 2 -lowpass 17 -b 128

Скриншоты




[torrentc.info]_torrent-5258289.torrent
Торрент: Зарегистрирован ·  [ 2017-02-14 13:48 ] ·  5558adcee665901565f6eb754a288d2c2d3f1628

14 KB

Статус: проверено
Скачан: 0 раз
Размер: 700 MB
Оценка: 
(Голосов: 0)
Сказали спасибо: 0  Спасибо
Похожие темы
[Профиль]    [ЛС]
Показать сообщения:    
Ответить на тему

Текущее время: Сегодня 01:32

Часовой пояс: GMT + 7



Вы не можете начинать темы
Вы не можете отвечать на сообщения
Вы не можете редактировать свои сообщения
Вы не можете удалять свои сообщения
Вы не можете голосовать в опросах
Вы не можете прикреплять файлы к сообщениям
Вы можете скачивать файлы