Посланник Божий / Heaven Sent (Крейг Клайд / Craig Clyde) [1994, США, семейная комедия, DVB-AVC] MVO (Kino Polska)

Ответить на тему
Статистика раздачи [Обновить пиров]
Размер:  830 MB   |    Зарегистрирован:  1 год 5 месяцев   |    Скачан:  0 раз

Полного источника не было: Никогда

 
   
 
 
 
Автор Сообщение

torrentc.info

Создавать темы 14-Фев-2017 13:49

[Цитировать]

Посланник Божий
Heaven Sent- Страна: США
Жанр: семейная комедия
Год выпуска: 1994
Продолжительность: 01:31:39Перевод: Профессиональный (многоголосый закадровый) по заказу Kino Polska на производственно-технической базе Студии "Акцент"
Cубтитры: нет
Режиссер: Крейг Клайд / Craig Clyde
В ролях: Винсент Картайзер / Vincent Kartheiser (Eddie Chandler), Дэвид Боу / David Bowe (Howard), Уилфорд Бримли / Wilford Brimley (Al), Мэри Бет Макдуг / Mary Beth McDonough (Kathy Chandler), Джоффри Лоуер / Geoffrey Lower (Parker), Уильям Кристофер / William Christopher (Priest)
Описание: Эдди, 14-летний подросток, убегая из магазина после мелкого воровства, попадает под машину и умирает в больнице. Но из-за какой-то путаницы на небесах ему дается три дня, чтобы восстановить свое доброе имя и утешить мать. Помогать в этом ему будет ангел-стажер.
Доп. информация: Filmbox IPTV
Награда: "Золотая премия" за лучший семейный фильм WorldFest Houston 1995.

Качество видео: DVB-AVC
Формат видео: MKV
Видео: AVC (H.264), 720x576@1024x576 (16:9), 25 fps, ~1112 kbps avg, 0.118 bit/pixel
Аудио: MPEG Audio 2, 2 ch, 48 kHz, ~128.00 kbps avg

MediaInfo

ОбщееУникальный идентификатор : 219889929815908862276673445555289023799 (0xA56D42915645C1B3AE755D5815216537)Полное имя : F:\My Torrents 3\[apreder]Heaven_Sent(1994)DVB.mkvФормат : MatroskaВерсия формата : Version 2Размер файла : 830 МбайтПродолжительность : 1 ч. 31 м.Общий поток : 1266 Кбит/секДата кодирования : UTC 2015-06-28 11:13:06Программа кодирования : mkvmerge v8.1.0 ('Psychedelic Postcard') 64bitБиблиотека кодирования : libebml v1.3.1 + libmatroska v1.4.2
ВидеоИдентификатор : 2Формат : AVCФормат/Информация : Advanced Video CodecПрофиль формата : Main@L3Параметр CABAC формата : ДаПараметр ReFrames формата : 3 кадраПараметр GOP формата : M=4, N=32Идентификатор кодека : V_MPEG4/ISO/AVCПродолжительность : 1 ч. 31 м.Битрейт : 1112 Кбит/секШирина : 720 пикселейВысота : 576 пикселейСоотношение сторон : 16:9Соотношение сторон в оригинале : 16:9Режим частоты кадров : ПостоянныйЧастота кадров : 22,710 кадра/секЧастота кадров в оригинале : 25,000 кадров/секСтандарт вещания : ComponentЦветовое пространство : YUVСубдискретизация насыщенности : 4:2:0Битовая глубина : 8 битТип развёртки : ЧересстрочнаяПорядок развёртки : Верхнее поле первоеБит/(Пиксели*Кадры) : 0.118Размер потока : 729 Мбайт (88%)Default : ДаForced : Нетcolour_range : LimitedОсновные цвета : BT.601 PALХарактеристики трансфера : BT.470 System B, BT.470 System GКоэффициенты матрицы : BT.601
АудиоИдентификатор : 1Формат : MPEG AudioВерсия формата : Version 1Профиль формата : Layer 2Режим : Joint stereoИдентификатор кодека : A_MPEG/L2Идентификатор кодека/Подсказка : MP2Продолжительность : 1 ч. 31 м.Вид битрейта : ПостоянныйБитрейт : 128 Кбит/секКаналы : 2 каналаЧастота : 48,0 КГцМетод сжатия : С потерямиЗадержка видео : -17 мс.Размер потока : 83,9 Мбайт (10%)Язык : RussianDefault : ДаForced : Нет

Скриншот c названием фильма

Скриншоты


Резервные скриншоты


-[2'405]


[torrentc.info]_torrent-5032886.torrent
Торрент: Зарегистрирован ·  [ 2017-02-14 13:48 ] ·  9bffe7947217d36e551861840b4a0f3cda3f03cf

17 KB

Статус: проверено
Скачан: 0 раз
Размер: 830 MB
Оценка: 
(Голосов: 0)
Сказали спасибо: 0  Спасибо
Похожие темы
[Профиль]    [ЛС]
Показать сообщения:    
Ответить на тему

Текущее время: Сегодня 01:16

Часовой пояс: GMT + 7



Вы не можете начинать темы
Вы не можете отвечать на сообщения
Вы не можете редактировать свои сообщения
Вы не можете удалять свои сообщения
Вы не можете голосовать в опросах
Вы не можете прикреплять файлы к сообщениям
Вы можете скачивать файлы