Глубокое синее море / Deep Blue Sea (Ренни Харлин / Renny Harlin) [1999, США, Австралия, триллер, ужасы, драма, BDRip] AVO (Андрей Гаврилов) + Original Eng + Sub (Rus, Eng)

Ответить на тему
Статистика раздачи [Обновить пиров]
Размер:  1.45 GB   |    Зарегистрирован:  1 год 5 месяцев   |    Скачан:  0 раз

Полного источника не было: Никогда

 
   
 
 
 
Автор Сообщение

torrentc.info

Создавать темы 14-Фев-2017 13:49

[Цитировать]

Глубокое синее море / Deep Blue Sea
Страна: США, Австралия
Жанр: триллер, ужасы, драма
Год выпуска: 1999
Продолжительность: 01:45:00
Перевод: Авторский (одноголосый закадровый) Андрей Гаврилов
Cубтитры: Русские / Английские (отдельно)
Оригинальная аудиодорожка: Английский
Режиссер: Ренни Харлин / Renny Harlin
В ролях: Томас Джейн, Саффрон Берроуз, ЭлЭл Кул Джей, Майкл Рапапорт, Стеллан Скарсгард, Сэмюэл Л. Джексон, Жаклин МакКензи, Айда Туртурро, Дэниэл Рей, Валенте Родригез, Брент Роам, Эял Поделл, Эринн Бартлетт, Дэн Тиль
Описание: События фильма разворачиваются в «Акватике» - подводной передовой лаборатории, где учёные бьются над лекарством от болезни Альцгеймера. В основе препарата лежит вещество, извлекаемое из мозга акул. Но исследователи сталкиваются со следующей проблемой: -- мозг этих существ мал, а значит проводить опыты и добиться революционных результатов будет сложно. Сьюзен Макалистер, возглавляющая «Акватику», находит нетривиальное решение: она, не ставя в известность коллег и спонсоров, применяет генную инженерию, чтобы увеличить мозг акул, сама того не подозревая, превратив их в мыслящих и не знающих пощады убийц. Одна из подопытных «сбегает» из лаборатории, совершив первое нападение, но её возвращают на место. Однако инцидент заставляет Рассела Франклина – спонсора проекта беспокоиться, и он прибывает в «Акватику». На глазах Франклина и других успешно проходит эксперимент по применению полученного лекарства на пациенте. Вот только после начинается настоящий ад: акулы медленно, но верно разрушают подводную базу и совершают расчётливые нападения на людей, у которых мало надежд на спасение....
Сэмпл: http://multi-up.com/1137764
Качество видео: BDRip (Исходник DEEP_BLUE_SEA_BDRemux 1080p_HDCLUB)
Формат видео: AVI
Видео: XviD 73, 720x304, (2,35:1), 23,976 fps, 1575 Кбит/с, 0.30 bit/pixel
Аудио: Русский (АС3, 2 ch (Front: L R), 48,0 KHz, 192 Kbps)
Аудио 2: Английский (АС3, 2 ch (Front: L R), 48,0 KHz, 192 Kbps)

MediaInfo

Общее
Полное имя : F:\Видеофильмы\В и д е о\Глубокое синее море_ (ужасы триллер 1999 год)_Leonard_Lew\Глубокое синее море_ (ужасы триллер 1999 год)_Leonard_Lew.avi
Формат : AVI
Формат/Информация : Audio Video Interleave
Размер файла : 1,45 Гбайт
Продолжительность : 1 ч. 45 м.
Общий поток : 1974 Кбит/сек
Программа кодирования : VirtualDubMod 1.5.10.3 | www.virtualdub-fr.org || (build 2550/release)
Библиотека кодирования : VirtualDubMod build 2550/release
Видео
Идентификатор : 0
Формат : MPEG-4 Visual
Профиль формата : Advanced Simple@L5
Параметр BVOP формата : 2
Параметр QPel формата : Нет
Параметр GMC формата : Без точки перехода
Параметр матрицы формата : Выборочная
Идентификатор кодека : XVID
Идентификатор кодека/Подсказка : XviD
Продолжительность : 1 ч. 45 м.
Битрейт : 1575 Кбит/сек
Ширина : 720 пикселей
Высота : 304 пикселя
Соотношение сторон : 2,35:1
Частота кадров : 23,976 (23976/1000) кадра/сек
Цветовое пространство : YUV
Субдискретизация насыщенности : 4:2:0
Битовая глубина : 8 бит
Тип развёртки : Прогрессивная
Метод сжатия : С потерями
Бит/(Пиксели*Кадры) : 0.300
Размер потока : 1,16 Гбайт (80%)
Библиотека кодирования : XviD 73
Аудио #1
Идентификатор : 1
Формат : AC-3
Формат/Информация : Audio Coding 3
Расширение режима : CM (complete main)
Параметр Endianness формата : Big
Идентификатор кодека : 2000
Продолжительность : 1 ч. 45 м.
Вид битрейта : Постоянный
Битрейт : 192 Кбит/сек
Каналы : 2 канала
Расположение каналов : Front: L R
Частота : 48,0 КГц
Частота кадров : 31,250 кадров/сек (1536 spf)
Метод сжатия : С потерями
Размер потока : 144 Мбайт (10%)
Выравнивание : Разделение по промежуткам
Продолжительность промежутка : 42 мс. (1,00 видеокадр)
Время предзагрузки промежутка : 500 мс.
Аудио #2
Идентификатор : 2
Формат : AC-3
Формат/Информация : Audio Coding 3
Расширение режима : CM (complete main)
Параметр Endianness формата : Big
Идентификатор кодека : 2000
Продолжительность : 1 ч. 45 м.
Вид битрейта : Постоянный
Битрейт : 192 Кбит/сек
Каналы : 2 канала
Расположение каналов : Front: L R
Частота : 48,0 КГц
Частота кадров : 31,250 кадров/сек (1536 spf)
Метод сжатия : С потерями
Размер потока : 144 Мбайт (10%)
Выравнивание : Разделение по промежуткам
Продолжительность промежутка : 42 мс. (1,00 видеокадр)
Время предзагрузки промежутка : 500 мс.

Скриншот c названием фильма

Сравнение[url=viewtopic.php?t=3255082]http://torrentc/forum/viewtopic.php?t=3255082[/url]


[torrentc.info]_torrent-5348534.torrent
Торрент: Зарегистрирован ·  [ 2017-02-14 13:48 ] ·  db23bcc2f5cfae15f5fc62ce5cb805f626a253fb

15 KB

Статус: проверено
Скачан: 0 раз
Размер: 1.45 GB
Оценка: 
(Голосов: 0)
Сказали спасибо: 0  Спасибо
Похожие темы
[Профиль]    [ЛС]
Показать сообщения:    
Ответить на тему

Текущее время: Сегодня 00:21

Часовой пояс: GMT + 7



Вы не можете начинать темы
Вы не можете отвечать на сообщения
Вы не можете редактировать свои сообщения
Вы не можете удалять свои сообщения
Вы не можете голосовать в опросах
Вы не можете прикреплять файлы к сообщениям
Вы можете скачивать файлы