Остров выживания / Бегство с зоны выживания / Беглец / The Runner / Escape from Survival Zone (Крис Джонс / Chris Jones) [1992, Великобритания, Канада, Боевик, триллер, VHSRip] AVO (С. Кузнецов) + Original Eng

Ответить на тему
Статистика раздачи [Обновить пиров]
Размер:  1.45 GB   |    Зарегистрирован:  1 год 6 месяцев   |    Скачан:  0 раз

Полного источника не было: Никогда

 
   
 
 
 
Автор Сообщение

torrentc.info

Создавать темы 14-Фев-2017 13:49

[Цитировать]

Остров выживания / Бегство с зоны выживания / Беглец / The Runner / Escape from Survival Zone
Страна: Великобритания, Канада
Жанр: Боевик, триллер
Год выпуска: 1992
Продолжительность: 1:30:21
Перевод: Авторский (одноголосый закадровый) С. Кузнецов
Cубтитры: нет
Оригинальная аудиодорожка: английский
Режиссер: Крис Джонс / Chris Jones
В ролях: Теренс Форд , Парис Джефферсон , Трюс Митчелл, Рэймонд Джонсон , Айвэн Роджерс
Описание: Трое журналистов, среди который и очаровательная журналисточка, специализирующиеся по новостям из "горячих точек", отправляются на так называемый "Остров выживания", где выживший из ума отставной сержант морской пехоты организовал курсы для любителей острых ощущений в экстремальных условиях. Вскоре выясняется, что парень постоянно готов к ядерной войне, а журналисточку он облюбовал в качестве подруги на тот случай, если катастрофа действительно состоится. Но для того, чтобы вкусить счастья любви, ему нужно убрать всех конкурентов. Стандратный триллер с "мочиловкой" философией не перегружен. (Иванов М.)
Доп. информация: За звуковую дорожку спасибо RoxMarty [url=viewtopic.php?t=5347345]http://torrentc/forum/viewtopic.php?t=5347345[/url]
Видеоряд найден в сети
Сэмпл: https://yadi.sk/i/7MSK1EgN3BVxwi
Качество видео: VHSRip
Формат видео: AVI
Видео: XviD , 608x400 (1.52:1) , 25.000 fps , 1 894 Kbps
Аудио: AC3 , 48 kHz , 192.00 kbps avg , 2/0 (L,R) ch
Аудио 2: AC3 , 48 kHz , 192.00 kbps avg , 2/0 (L,R) ch

MediaInfo

Complete name Бегство с зоны выживания 1992 (Kuznecov).avi
Format : AVI
Format/Info : Audio Video Interleave
File size : 1.45 GiB
Duration : 1h 30mn
Overall bit rate : 2 292 Kbps
Writing application : VirtualDubMod 1.5.10.3 | www.virtualdub-fr.org || (build 2550/release)
Writing library : VirtualDubMod build 2550/release
Video
ID : 0
Format : MPEG-4 Visual
Format profile : Advanced Simple@L5
Format settings, BVOP : 1
Format settings, QPel : No
Format settings, GMC : No warppoints
Format settings, Matrix : Custom
Codec ID : XVID
Codec ID/Hint : XviD
Duration : 1h 30mn
Bit rate : 1 894 Kbps
Width : 608 pixels
Height : 400 pixels
Display aspect ratio : 3:2
Frame rate : 25.000 fps
Color space : YUV
Chroma subsampling : 4:2:0
Bit depth : 8 bits
Scan type : Progressive
Compression mode : Lossy
Bits/(Pixel*Frame) : 0.311
Stream size : 1.20 GiB (83%)
Writing library : XviD 73
Audio #1
ID : 1
Format : AC-3
Format/Info : Audio Coding 3
Mode extension : CM (complete main)
Format settings, Endianness : Big
Codec ID : 2000
Duration : 1h 30mn
Bit rate mode : Constant
Bit rate : 192 Kbps
Channel(s) : 2 channels
Channel positions : Front: L R
Sampling rate : 48.0 KHz
Frame rate : 31.250 fps (1536 spf)
Compression mode : Lossy
Stream size : 124 MiB (8%)
Alignment : Split accross interleaves
Interleave, duration : 40 ms (1.00 video frame)
Interleave, preload duratio : 500 ms
Audio #2
ID : 2
Format : AC-3
Format/Info : Audio Coding 3
Mode extension : CM (complete main)
Format settings, Endianness : Big
Codec ID : 2000
Duration : 1h 30mn
Bit rate mode : Constant
Bit rate : 192 Kbps
Channel(s) : 2 channels
Channel positions : Front: L R
Sampling rate : 48.0 KHz
Frame rate : 31.250 fps (1536 spf)
Compression mode : Lossy
Stream size : 124 MiB (8%)
Alignment : Split accross interleaves
Interleave, duration : 40 ms (1.00 video frame)
Interleave, preload duratio : 500 ms

Скриншоты



[torrentc.info]_torrent-5348713.torrent
Торрент: Зарегистрирован ·  [ 2017-02-14 13:48 ] ·  6254314116669d9f015ef546836b6c01668c7626

15 KB

Статус: проверено
Скачан: 0 раз
Размер: 1.45 GB
Оценка: 
(Голосов: 0)
Сказали спасибо: 0  Спасибо
Похожие темы
[Профиль]    [ЛС]
Показать сообщения:    
Ответить на тему

Текущее время: Сегодня 21:03

Часовой пояс: GMT + 7



Вы не можете начинать темы
Вы не можете отвечать на сообщения
Вы не можете редактировать свои сообщения
Вы не можете удалять свои сообщения
Вы не можете голосовать в опросах
Вы не можете прикреплять файлы к сообщениям
Вы можете скачивать файлы