Закованные в пекло 2: Лишённые свободы / Caged Heat II: Stripped of Freedom (Сирио Х. Сантьяго / Cirio H. Santiago) [1994, Филиппины, США, Боевик, VHSRip] AVO (М. Иванов)

Ответить на тему
Статистика раздачи [Обновить пиров]
Размер:  1.03 GB   |    Зарегистрирован:  1 год 9 месяцев   |    Скачан:  1 раз

Полного источника не было: 1 год 1 месяц

 
   
 
 
 
Автор Сообщение

torrentc.info

Создавать темы 14-Фев-2017 13:49

[Цитировать]

Закованные в пекло 2: Лишённые свободы / Caged Heat II: Stripped of Freedom
Страна: Филиппины, США
Жанр: Боевик
Год выпуска: 1994
Продолжительность: 1:12:28
Перевод: Авторский (одноголосый закадровый) М. Иванов
Cубтитры: нет
Режиссер: Сирио Х. Сантьяго / Cirio H. Santiago
В ролях: Джуэл Шепард
Памелла Д’Пелла
Сьюзэн Харви
Шанель Акико Хираи
Эд Крик
Вик Диас
Рамон Д’Сальва
Бон Вибар
Хосе Торрес
Генри Стрцалковский
Описание: Король Лим - жестокий правитель страны, находящейся на грани революции. ЦРУ устраивает поддельное убийство, чтобы безопасно переправить его через границу, но его дочь была захвачена и отправлена в Скалу-островную тюрьму, прославившуюся жестокостью порядков. Агент Аманда совершает преступление, чтобы попасть в Скалу и вызволить принцессу Маргу. Здесь она сталкивается с предательством, коррупцией и коварством начальника тюрьмы, что очень сильно осложняет ей задачу.
Доп. информация: За звуковую дорожку спасибо Mixa_12345_mixa
Видеоряд найден в сети
Сэмпл: https://yadi.sk/i/9eT-anBu3BXVag
Качество видео: VHSRip
Формат видео: AVI
Видео: XviD , 636x480 (1.33:1) , 29.970 fps ,1 827 Kbps
Аудио: AC3 , 48 kHz , 192.00 kbps avg , 2/0 (L,R) ch

MediaInfo

Complete name Закованные в пекло 2 (1994).avi
Format : AVI
Format/Info : Audio Video Interleave
File size : 1.03 GiB
Duration : 1h 12mn
Overall bit rate : 2 030 Kbps
Writing library : VirtualDub build 35491/release
Video
ID : 0
Format : MPEG-4 Visual
Format profile : Advanced Simple@L5
Format settings, BVOP : 2
Format settings, QPel : No
Format settings, GMC : No warppoints
Format settings, Matrix : Default (MPEG)
Codec ID : XVID
Codec ID/Hint : XviD
Duration : 1h 12mn
Bit rate : 1 827 Kbps
Width : 636 pixels
Height : 480 pixels
Display aspect ratio : 4:3
Frame rate : 29.970 (29970/1000) fps
Color space : YUV
Chroma subsampling : 4:2:0
Bit depth : 8 bits
Scan type : Progressive
Compression mode : Lossy
Bits/(Pixel*Frame) : 0.200
Stream size : 947 MiB (90%)
Writing library : XviD 64
Audio
ID : 1
Format : AC-3
Format/Info : Audio Coding 3
Mode extension : CM (complete main)
Format settings, Endianness : Big
Codec ID : 2000
Duration : 1h 12mn
Bit rate mode : Constant
Bit rate : 192 Kbps
Channel(s) : 2 channels
Channel positions : Front: L R
Sampling rate : 48.0 KHz
Frame rate : 31.250 fps (1536 spf)
Compression mode : Lossy
Stream size : 99.5 MiB (9%)
Alignment : Aligned on interleaves
Interleave, duration : 33 ms (1.00 video frame)
Interleave, preload duratio : 512 ms


[torrentc.info]_torrent-5348788.torrent
Торрент: Зарегистрирован ·  [ 2017-02-14 13:48 ] ·  e98ba9bb2b61e1bb20c63a899de9e1d26f03dede

11 KB

Статус: проверено
Скачан: 1 раз
Размер: 1.03 GB
Оценка: 
(Голосов: 0)
Сказали спасибо: 0  Спасибо
Похожие темы
[Профиль]    [ЛС]
Показать сообщения:    
Ответить на тему

Текущее время: Сегодня 22:34

Часовой пояс: GMT + 7



Вы не можете начинать темы
Вы не можете отвечать на сообщения
Вы не можете редактировать свои сообщения
Вы не можете удалять свои сообщения
Вы не можете голосовать в опросах
Вы не можете прикреплять файлы к сообщениям
Вы можете скачивать файлы