Отлив / Ebbtide (Крэйг Лахифф / Craig Lahiff) [1994, Австралия, Триллер, DVDRip] AVO (Вартан Дохалов)

Ответить на тему
Статистика раздачи [Обновить пиров]
Размер:  1.34 GB   |    Зарегистрирован:  1 год 7 месяцев   |    Скачан:  0 раз

Полного источника не было: Никогда

 
   
 
 
 
Автор Сообщение

torrentc.info

Создавать темы 14-Фев-2017 13:49

[Цитировать]

Отлив / Ebbtide
Страна: Австралия
Жанр: Триллер
Год выпуска: 1994
Продолжительность: 01:33:27
Перевод: Авторский (одноголосый закадровый) Вартан Дохалов
Cубтитры: нет
Оригинальная аудиодорожка: нет
Режиссер: Крэйг Лахифф / Craig Lahiff
В ролях: Гарри Хэмлин, Джуди МакИнтош, Джон Уотерс, Сьюзэн Лайонс, Джон Грегг, Фрэнки Дж. Холден, Никки Полл, Герард Кеннеди, Кейт Рэйсон, Ева Ситта
Описание: Химическое производство угрожает экологии, а уничтожение токсичных отходов стоит очень дорого. Компании экономят на всем, включая здоровье людей, ради больших прибылей. В результате отравления погибает мальчик. Юрист, подавший в суд на химический завод, разбивается в автокатастрофе. Тогда его партнер (Хэмлин) начинает расследование деятельности ядовитого гиганта. Дело оказывается для героя очень опасным, но его несколько разнообразит любовная связь с женой главного уничтожителя отходов. (М. Иванов)
Доп. информация: Дорожка с В. Дохаловым синхронизирована и наложена ale_x2008 при помощи Sony Vegas и VirtualDubMod.
За предоставленную дорожку благодарим - Fred198.
P.S. 00:04:43 - 00:05:13 отрезок без перевода.

Релиз
Сэмпл: https://yadi.sk/i/X4MhbFzb3Bbbr6
Качество видео: DVDRip
Формат видео: AVI
Видео: build 73, 640x480 (1.33:1), 23.976 fps, 1854 kbps avg, 0.25 bit/pixel
Аудио: AC3 Dolby Digital, 48000Hz, 2/0 (L,R) ch (mono), 192.00 kbps avg

MediaInfo

Отлив (Ebbtide) [by ale_x2008].avi
Format : AVI
Format/Info : Audio Video Interleave
File size : 1.34 GiB
Duration : 1 h 33 min
Overall bit rate : 2 056 kb/s
Movie name : Отлив (Ebbtide) VHSRip Dochalov mono [by ale_x2008]
Director : ale_x2008
Genre : Thriller
Writing application : VirtualDubMod 1.5.10.3 (build 2550/release)
Original source form/Name : Movie
Copyright : Edich2
Comment : torrentc
Video
ID : 0
Format : MPEG-4 Visual
Format profile : Advanced Simple@L5
Format settings, BVOP : 1
Format settings, QPel : No
Format settings, GMC : No warppoints
Format settings, Matrix : Default (MPEG)
Codec ID : XVID
Codec ID/Hint : XviD
Duration : 1 h 33 min
Bit rate : 1 855 kb/s
Width : 640 pixels
Height : 480 pixels
Display aspect ratio : 4:3
Frame rate : 23.976 (23976/1000) FPS
Color space : YUV
Chroma subsampling : 4:2:0
Bit depth : 8 bits
Scan type : Progressive
Compression mode : Lossy
Bits/(Pixel*Frame) : 0.252
Stream size : 1.21 GiB (90%)
Writing library : XviD 73
Audio
ID : 1
Format : AC-3
Format/Info : Audio Coding 3
Mode extension : CM (complete main)
Format settings, Endianness : Big
Codec ID : 2000
Duration : 1 h 33 min
Bit rate mode : Constant
Bit rate : 192 kb/s
Channel(s) : 2 channels
Channel positions : Front: L R
Sampling rate : 48.0 kHz
Frame rate : 31.250 FPS (1536 spf)
Compression mode : Lossy
Stream size : 128 MiB (9%)
Alignment : Split accross interleaves
Interleave, duration : 42 ms (1.00 video frame)
Interleave, preload duratio : 500 ms

Скриншоты





[torrentc.info]_torrent-5348957.torrent
Торрент: Зарегистрирован ·  [ 2017-02-14 13:48 ] ·  c4d1618dfc4be5feddf053bd480064c31a92015f

14 KB

Статус: проверено
Скачан: 0 раз
Размер: 1.34 GB
Оценка: 
(Голосов: 0)
Сказали спасибо: 0  Спасибо
Похожие темы
[Профиль]    [ЛС]
Показать сообщения:    
Ответить на тему

Текущее время: Сегодня 14:13

Часовой пояс: GMT + 7



Вы не можете начинать темы
Вы не можете отвечать на сообщения
Вы не можете редактировать свои сообщения
Вы не можете удалять свои сообщения
Вы не можете голосовать в опросах
Вы не можете прикреплять файлы к сообщениям
Вы можете скачивать файлы