Сильнейший удар: Бой до смерти / Shootfighter: Fight to the Death (Патрик Алан / Patrick Alan) [1993, США, Боевик, HDRip-AVC] DVO (Рен ТВ) + AVO (Андрей Гаврилов) + Original Eng

Ответить на тему
Статистика раздачи [Обновить пиров]
Размер:  2.17 GB   |    Зарегистрирован:  1 год 5 месяцев   |    Скачан:  0 раз

Полного источника не было: Никогда

 
   
 
 
 
Автор Сообщение

torrentc.info

Создавать темы 14-Фев-2017 13:49

[Цитировать]

Сильнейший удар: Бой до смерти / Shootfighter: Fight to the Death
Страна: США
Жанр: Боевик
Год выпуска: 1993
Продолжительность: 01:35:35
Перевод 1: Профессиональный (двухголосый закадровый) Рен ТВ
Перевод 2: Авторский (одноголосый закадровый) Андрей Гаврилов
Cубтитры: нет
Оригинальная аудиодорожка: английский
Режиссер: Патрик Алан / Patrick Alan
В ролях: Боло Йенг, Мэриам д’Або, Уильям Забка, Майкл Бернардо, Сигал Дайэмант, Мартин Коув, Эдвард Альберт, Джеймс Пак, Лэнг Юнг, Сагив Дайамант
Описание: Два друга, ученики мастера Шинго, приехали на подпольный турнир бойцов, поединки которого ведутся до смертельного исхода.
Драматически складывается не только ход турнира, но и взаимоотношения друзей. Но на ринг выходит мастер Шинго…
Автор рипа: Sem-te
Релиз от:

Исходник: Shootfighter.Fight.to.the.Death.1993.1080p.BluRay.x264.DTS.Sem-te
Качество видео: HDRip-AVC
Формат видео: MKV
Видео: MPEG-4 AVC, 2417 Кбит/с, 1024x576, 23.976 fps
Аудио 1: 48 kHz, AC3 Dolby Digital, 2/0 (L,R) ch, ~192 kbps avg | DVO
Аудио 2: 48 kHz, AC3 Dolby Digital, 2/0 (L,R) ch, ~192 kbps avg | AVO
Аудио 3: 48 kHz, DTS, 3/2 (L,C,R,l,r) + LFE ch, ~448 kbps avg | Eng

MediaInfo

General
Unique ID : 180711746989831032296929689219625576636 (0x87F3D1050810303681A7832F2DEAE8BC)
Format : Matroska
Format version : Version 2
File size : 2.17 GiB
Duration : 1h 35mn
Overall bit rate : 3 251 Kbps
Encoded date : UTC 2017-01-29 09:57:19
Writing application : mkvmerge v7.8.0 ('River Man') 32bit built on Apr 3 2015 12:11:22
Writing library : libebml v1.3.1 + libmatroska v1.4.2
Video
ID : 1
Format : AVC
Format/Info : Advanced Video Codec
Format profile : High@L4.1
Format settings, CABAC : Yes
Format settings, ReFrames : 11 frames
Codec ID : V_MPEG4/ISO/AVC
Duration : 1h 35mn
Bit rate : 2 417 Kbps
Width : 1 024 pixels
Height : 576 pixels
Display aspect ratio : 16:9
Frame rate mode : Constant
Frame rate : 23.976 fps
Color space : YUV
Chroma subsampling : 4:2:0
Bit depth : 8 bits
Scan type : Progressive
Bits/(Pixel*Frame) : 0.171
Stream size : 1.57 GiB (72%)
Writing library : x264 core 146 r2538 121396c
Encoding settings : cabac=1 / ref=11 / deblock=1:-2:-1 / analyse=0x3:0x133 / me=umh / subme=11 / psy=1 / psy_rd=1.00:0.20 / mixed_ref=1 / me_range=32 / chroma_me=1 / trellis=2 / 8x8dct=1 / cqm=0 / deadzone=21,11 / fast_pskip=1 / chroma_qp_offset=-3 / threads=3 / lookahead_threads=1 / sliced_threads=0 / nr=0 / decimate=1 / interlaced=0 / bluray_compat=0 / constrained_intra=0 / bframes=11 / b_pyramid=2 / b_adapt=2 / b_bias=0 / direct=3 / weightb=1 / open_gop=0 / weightp=2 / keyint=250 / keyint_min=23 / scenecut=40 / intra_refresh=0 / rc_lookahead=60 / rc=2pass / mbtree=1 / bitrate=2417 / ratetol=1.0 / qcomp=0.60 / qpmin=0 / qpmax=69 / qpstep=4 / cplxblur=20.0 / qblur=0.5 / ip_ratio=1.40 / aq=1:1.00
Default : Yes
Forced : No
Audio #1
ID : 2
Format : AC-3
Format/Info : Audio Coding 3
Mode extension : CM (complete main)
Format settings, Endianness : Big
Codec ID : A_AC3
Duration : 1h 35mn
Bit rate mode : Constant
Bit rate : 192 Kbps
Channel(s) : 2 channels
Channel positions : Front: L R
Sampling rate : 48.0 KHz
Bit depth : 16 bits
Compression mode : Lossy
Stream size : 131 MiB (6%)
Title : Рен-ТВ
Language : Russian
Default : Yes
Forced : No
Audio #2
ID : 3
Format : AC-3
Format/Info : Audio Coding 3
Mode extension : CM (complete main)
Format settings, Endianness : Big
Codec ID : A_AC3
Duration : 1h 35mn
Bit rate mode : Constant
Bit rate : 192 Kbps
Channel(s) : 2 channels
Channel positions : Front: L R
Sampling rate : 48.0 KHz
Bit depth : 16 bits
Compression mode : Lossy
Stream size : 131 MiB (6%)
Title : Андрей Гаврилов
Language : Russian
Default : No
Forced : No
Audio #3
ID : 4
Format : AC-3
Format/Info : Audio Coding 3
Mode extension : CM (complete main)
Format settings, Endianness : Big
Codec ID : A_AC3
Duration : 1h 35mn
Bit rate mode : Constant
Bit rate : 448 Kbps
Channel(s) : 6 channels
Channel positions : Front: L C R, Side: L R, LFE
Sampling rate : 48.0 KHz
Bit depth : 16 bits
Compression mode : Lossy
Stream size : 307 MiB (14%)
Title : Original
Language : English
Default : No
Forced : No

Скриншоты



[torrentc.info]_torrent-5349047.torrent
Торрент: Зарегистрирован ·  [ 2017-02-14 13:48 ] ·  13123369359786922955a9591690f81b1a3963c2

11 KB

Статус: проверено
Скачан: 0 раз
Размер: 2.17 GB
Оценка: 
(Голосов: 0)
Сказали спасибо: 0  Спасибо
Похожие темы
[Профиль]    [ЛС]
Показать сообщения:    
Ответить на тему

Текущее время: Сегодня 12:05

Часовой пояс: GMT + 7



Вы не можете начинать темы
Вы не можете отвечать на сообщения
Вы не можете редактировать свои сообщения
Вы не можете удалять свои сообщения
Вы не можете голосовать в опросах
Вы не можете прикреплять файлы к сообщениям
Вы можете скачивать файлы